  0
SECTION
  2
HEADER
  9
$ACADVER
  1
AC1015
  9
$ACADMAINTVER
 70
    20
  9
$DWGCODEPAGE
  3
ANSI_950
  9
$INSBASE
 10
0.0
 20
0.0
 30
0.0
  9
$EXTMIN
 10
-0.0640820246935618
 20
-0.0144947436808707
 30
-0.0002928231046582
  9
$EXTMAX
 10
700.0854524784781
 20
475.0144969555718
 30
9.596252463748928
  9
$LIMMIN
 10
0.0
 20
0.0
  9
$LIMMAX
 10
420.0
 20
297.0
  9
$ORTHOMODE
 70
     0
  9
$REGENMODE
 70
     1
  9
$FILLMODE
 70
     1
  9
$QTEXTMODE
 70
     0
  9
$MIRRTEXT
 70
     0
  9
$LTSCALE
 40
1.0
  9
$ATTMODE
 70
     1
  9
$TEXTSIZE
 40
6.0
  9
$TRACEWID
 40
1.0
  9
$TEXTSTYLE
  7
CN
  9
$CLAYER
  8
mark
  9
$CELTYPE
  6
ByLayer
  9
$CECOLOR
 62
   256
  9
$CELTSCALE
 40
1.0
  9
$DISPSILH
 70
     0
  9
$DIMSCALE
 40
2.5
  9
$DIMASZ
 40
3.5
  9
$DIMEXO
 40
1.35
  9
$DIMDLI
 40
0.38
  9
$DIMRND
 40
0.0
  9
$DIMDLE
 40
0.0
  9
$DIMEXE
 40
1.35
  9
$DIMTP
 40
0.0
  9
$DIMTM
 40
0.0
  9
$DIMTXT
 40
3.5
  9
$DIMCEN
 40
0.09
  9
$DIMTSZ
 40
0.0
  9
$DIMTOL
 70
     0
  9
$DIMLIM
 70
     0
  9
$DIMTIH
 70
     0
  9
$DIMTOH
 70
     0
  9
$DIMSE1
 70
     0
  9
$DIMSE2
 70
     0
  9
$DIMTAD
 70
     1
  9
$DIMZIN
 70
     8
  9
$DIMBLK
  1
Open30
  9
$DIMASO
 70
     1
  9
$DIMSHO
 70
     1
  9
$DIMPOST
  1

  9
$DIMAPOST
  1

  9
$DIMALT
 70
     0
  9
$DIMALTD
 70
     2
  9
$DIMALTF
 40
25.4
  9
$DIMLFAC
 40
1.0
  9
$DIMTOFL
 70
     1
  9
$DIMTVP
 40
0.0
  9
$DIMTIX
 70
     0
  9
$DIMSOXD
 70
     0
  9
$DIMSAH
 70
     0
  9
$DIMBLK1
  1

  9
$DIMBLK2
  1

  9
$DIMSTYLE
  2
Standard
  9
$DIMCLRD
 70
   256
  9
$DIMCLRE
 70
   256
  9
$DIMCLRT
 70
     3
  9
$DIMTFAC
 40
1.0
  9
$DIMGAP
 40
1.35
  9
$DIMJUST
 70
     0
  9
$DIMSD1
 70
     0
  9
$DIMSD2
 70
     0
  9
$DIMTOLJ
 70
     1
  9
$DIMTZIN
 70
     0
  9
$DIMALTZ
 70
     0
  9
$DIMALTTZ
 70
     0
  9
$DIMUPT
 70
     0
  9
$DIMDEC
 70
     2
  9
$DIMTDEC
 70
     2
  9
$DIMALTU
 70
     2
  9
$DIMALTTD
 70
     2
  9
$DIMTXSTY
  7
Standard
  9
$DIMAUNIT
 70
     0
  9
$DIMADEC
 70
     2
  9
$DIMALTRND
 40
0.0
  9
$DIMAZIN
 70
     2
  9
$DIMDSEP
 70
    46
  9
$DIMATFIT
 70
     3
  9
$DIMFRAC
 70
     0
  9
$DIMLDRBLK
  1
Open30
  9
$DIMLUNIT
 70
     2
  9
$DIMLWD
 70
    -2
  9
$DIMLWE
 70
    -2
  9
$DIMTMOVE
 70
     0
  9
$LUNITS
 70
     2
  9
$LUPREC
 70
     4
  9
$SKETCHINC
 40
1.0
  9
$FILLETRAD
 40
0.0
  9
$AUNITS
 70
     0
  9
$AUPREC
 70
     0
  9
$MENU
  1
.
  9
$ELEVATION
 40
0.0
  9
$PELEVATION
 40
0.0
  9
$THICKNESS
 40
0.0
  9
$LIMCHECK
 70
     0
  9
$CHAMFERA
 40
0.75
  9
$CHAMFERB
 40
0.75
  9
$CHAMFERC
 40
45.0
  9
$CHAMFERD
 40
0.7853981633974483
  9
$SKPOLY
 70
     0
  9
$TDCREATE
 40
2453952.586786748
  9
$TDUCREATE
 40
2453952.253453415
  9
$TDUPDATE
 40
2458864.571925011
  9
$TDUUPDATE
 40
2458864.238591679
  9
$TDINDWG
 40
3.6959109375
  9
$TDUSRTIMER
 40
3.6959098495
  9
$USRTIMER
 70
     1
  9
$ANGBASE
 50
0.0
  9
$ANGDIR
 70
     0
  9
$PDMODE
 70
    35
  9
$PDSIZE
 40
0.0
  9
$PLINEWID
 40
0.0
  9
$SPLFRAME
 70
     0
  9
$SPLINETYPE
 70
     6
  9
$SPLINESEGS
 70
     8
  9
$HANDSEED
  5
22D9F
  9
$SURFTAB1
 70
     6
  9
$SURFTAB2
 70
     6
  9
$SURFTYPE
 70
     6
  9
$SURFU
 70
     6
  9
$SURFV
 70
     6
  9
$UCSBASE
  2

  9
$UCSNAME
  2

  9
$UCSORG
 10
0.0
 20
0.0
 30
0.0
  9
$UCSXDIR
 10
1.0
 20
0.0
 30
0.0
  9
$UCSYDIR
 10
0.0
 20
1.0
 30
0.0
  9
$UCSORTHOREF
  2

  9
$UCSORTHOVIEW
 70
     0
  9
$UCSORGTOP
 10
0.0
 20
0.0
 30
0.0
  9
$UCSORGBOTTOM
 10
0.0
 20
0.0
 30
0.0
  9
$UCSORGLEFT
 10
0.0
 20
0.0
 30
0.0
  9
$UCSORGRIGHT
 10
0.0
 20
0.0
 30
0.0
  9
$UCSORGFRONT
 10
0.0
 20
0.0
 30
0.0
  9
$UCSORGBACK
 10
0.0
 20
0.0
 30
0.0
  9
$PUCSBASE
  2

  9
$PUCSNAME
  2

  9
$PUCSORG
 10
0.0
 20
0.0
 30
0.0
  9
$PUCSXDIR
 10
1.0
 20
0.0
 30
0.0
  9
$PUCSYDIR
 10
0.0
 20
1.0
 30
0.0
  9
$PUCSORTHOREF
  2

  9
$PUCSORTHOVIEW
 70
     0
  9
$PUCSORGTOP
 10
0.0
 20
0.0
 30
0.0
  9
$PUCSORGBOTTOM
 10
0.0
 20
0.0
 30
0.0
  9
$PUCSORGLEFT
 10
0.0
 20
0.0
 30
0.0
  9
$PUCSORGRIGHT
 10
0.0
 20
0.0
 30
0.0
  9
$PUCSORGFRONT
 10
0.0
 20
0.0
 30
0.0
  9
$PUCSORGBACK
 10
0.0
 20
0.0
 30
0.0
  9
$USERI1
 70
     0
  9
$USERI2
 70
     0
  9
$USERI3
 70
     0
  9
$USERI4
 70
     0
  9
$USERI5
 70
     0
  9
$USERR1
 40
0.0
  9
$USERR2
 40
0.0
  9
$USERR3
 40
0.0
  9
$USERR4
 40
0.0
  9
$USERR5
 40
0.0
  9
$WORLDVIEW
 70
     1
  9
$SHADEDGE
 70
     3
  9
$SHADEDIF
 70
    70
  9
$TILEMODE
 70
     1
  9
$MAXACTVP
 70
    64
  9
$PINSBASE
 10
0.0
 20
0.0
 30
0.0
  9
$PLIMCHECK
 70
     0
  9
$PEXTMIN
 10
0.0
 20
0.0
 30
0.0
  9
$PEXTMAX
 10
0.0
 20
0.0
 30
0.0
  9
$PLIMMIN
 10
0.0
 20
0.0
  9
$PLIMMAX
 10
12.0
 20
9.0
  9
$UNITMODE
 70
     0
  9
$VISRETAIN
 70
     1
  9
$PLINEGEN
 70
     0
  9
$PSLTSCALE
 70
     1
  9
$TREEDEPTH
 70
  3020
  9
$CMLSTYLE
  2
Standard
  9
$CMLJUST
 70
     0
  9
$CMLSCALE
 40
20.0
  9
$PROXYGRAPHICS
 70
     1
  9
$MEASUREMENT
 70
     1
  9
$CELWEIGHT
370
    -1
  9
$ENDCAPS
280
     0
  9
$JOINSTYLE
280
     0
  9
$LWDISPLAY
290
     0
  9
$INSUNITS
 70
     4
  9
$HYPERLINKBASE
  1

  9
$STYLESHEET
  1
LIN.ctb
  9
$XEDIT
290
     1
  9
$CEPSNTYPE
380
     0
  9
$PSTYLEMODE
290
     1
  9
$FINGERPRINTGUID
  2
{CB7B7C18-C0B1-49D6-A603-B3CB3420C1F9}
  9
$VERSIONGUID
  2
{05C88B92-B9D0-40BE-94C7-25844740895D}
  9
$EXTNAMES
290
     1
  9
$PSVPSCALE
 40
0.0
  9
$OLESTARTUP
290
     0
  0
ENDSEC
  0
SECTION
  2
CLASSES
  0
CLASS
  1
ACDBDICTIONARYWDFLT
  2
AcDbDictionaryWithDefault
  3
ObjectDBX Classes
 90
        0
280
     0
281
     0
  0
CLASS
  1
DICTIONARYVAR
  2
AcDbDictionaryVar
  3
ObjectDBX Classes
 90
        0
280
     0
281
     0
  0
CLASS
  1
TABLESTYLE
  2
AcDbTableStyle
  3
ObjectDBX Classes
 90
     4095
280
     0
281
     0
  0
CLASS
  1
DIMASSOC
  2
AcDbDimAssoc
  3
"AcDbDimAssoc|Product Desc:     AcDim ARX App For Dimension|Company:          Autodesk, Inc.|WEB Address:      www.autodesk.com"
 90
        0
280
     0
281
     0
  0
CLASS
  1
SORTENTSTABLE
  2
AcDbSortentsTable
  3
ObjectDBX Classes
 90
        0
280
     0
281
     0
  0
CLASS
  1
MATERIAL
  2
AcDbMaterial
  3
ObjectDBX Classes
 90
     1153
280
     0
281
     0
  0
CLASS
  1
VISUALSTYLE
  2
AcDbVisualStyle
  3
ObjectDBX Classes
 90
     4095
280
     0
281
     0
  0
CLASS
  1
SCALE
  2
AcDbScale
  3
ObjectDBX Classes
 90
     1153
280
     0
281
     0
  0
CLASS
  1
MLEADERSTYLE
  2
AcDbMLeaderStyle
  3
ACDB_MLEADERSTYLE_CLASS
 90
     4095
280
     0
281
     0
  0
CLASS
  1
ACME_DOCUMENT
  2
AcMeDbDoc
  3
AcMeServices
 90
     1024
280
     0
281
     0
  0
CLASS
  1
AMGSETTINGSOBJ
  2
AmgSettingsObj
  3
"AcadM|Product Description: AutoCAD Mechanical|Company: Autodesk, Inc."
 90
     1024
280
     0
281
     0
  0
CLASS
  1
ACMESCOPE
  2
AcMeScope
  3
AcMeServices
 90
     1024
280
     0
281
     0
  0
CLASS
  1
ACMECOMMANDHISTORY
  2
AcMeCommandHistory
  3
AcMeServices
 90
     1024
280
     0
281
     0
  0
CLASS
  1
ACIMSYSVARMAN
  2
AcImSysVarManager
  3
AcMeServices
 90
     1024
280
     0
281
     0
  0
CLASS
  1
ACIMINTSYSVAR
  2
AcImIntSysVar
  3
AcMeServices
 90
     1024
280
     0
281
     0
  0
CLASS
  1
ACMESTATEMGR
  2
AcMeStateMgr
  3
AcMeServices
 90
     1024
280
     0
281
     0
  0
CLASS
  1
ACDBENTITYCACHE
  2
AcMeEntityCache
  3
AcMeServices
 90
     1024
280
     0
281
     0
  0
CLASS
  1
ACGREFMASTER
  2
AcGrefMaster
  3
AcAttribServices
 90
     1024
280
     0
281
     0
  0
CLASS
  1
AM_DRAWING_MGR
  2
AcDmDwgMgr
  3
AcMechDwgViewMgmt
 90
    33792
280
     0
281
     0
  0
CLASS
  1
AM_DWG_DOCUMENT
  2
AcDmDwgDocument
  3
AcMechDwgViewMgmt
 90
    33792
280
     0
281
     0
  0
CLASS
  1
AM_DWG_SHEET
  2
AcDmSheet
  3
AcMechDwgViewMgmt
 90
    33792
280
     0
281
     0
  0
CLASS
  1
AM_VIEWDIMPARMAP
  2
AcDmViewDimParMap
  3
AcMechDwgViewMgmt
 90
    33792
280
     0
281
     0
  0
CLASS
  1
AMDTINTERNALREACTOR
  2
AmdtInternalReactor
  3
AcMeServices
 90
    33792
280
     0
281
     0
  0
CLASS
  1
ACIMREALSYSVAR
  2
AcImRealSysVar
  3
AcMeServices
 90
    33792
280
     0
281
     0
  0
CLASS
  1
AM_DWGMGR_NAME
  2
AcDmDwgMgrName
  3
AcMechDwgViewMgmt
 90
    33792
280
     0
281
     0
  0
CLASS
  1
ACME_DATABASE
  2
AcMeDbDatabase
  3
AcMeServices
 90
     1024
280
     0
281
     0
  0
CLASS
  1
ACRFINSADJUSTERMGR
  2
AcRfInsAdjusterMgr
  3
AcMeServices
 90
     1024
280
     0
281
     0
  0
CLASS
  1
ACGREFACADMASTER
  2
AcGrefacadMaster
  3
AcGrefServices
 90
     1024
280
     0
281
     0
  0
CLASS
  1
AMDTMENUSTATEMGR
  2
AmdtMenuStateMgr
  3
McadcomServices
 90
     1024
280
     0
281
     0
  0
CLASS
  1
AMDTMCOMMENUSTATE
  2
AmdtMcomMenuState
  3
McadcomServices
 90
     1024
280
     0
281
     0
  0
CLASS
  1
AMIMASTER
  2
AmiMaster
  3
AmiServices
 90
     1024
280
     0
281
     0
  0
CLASS
  1
MAPIAMMOUDLE
  2
MApiAmModule
  3
MApiAmServices
 90
     1024
280
     0
281
     0
  0
CLASS
  1
ACIMSTRSYSVAR
  2
AcImStrSysVar
  3
AcMeServices
 90
     1024
280
     0
281
     0
  0
CLASS
  1
AMDTDMMENUSTATE
  2
AmdtDmMenuState
  3
AcMechDwgViewMgmt
 90
    33792
280
     0
281
     0
  0
CLASS
  1
AMDTAMMENUSTATE
  2
AmdtAmMenuState
  3
DesignerAssemblies
 90
     1024
280
     0
281
     0
  0
CLASS
  1
ACAMPROJECT
  2
AcAmProject
  3
DesignerAssemblies
 90
     1024
280
     0
281
     0
  0
CLASS
  1
ACAMGRCOMPDEF
  2
AcAmGrCompDef
  3
DesignerAssemblies
 90
     1024
280
     0
281
     0
  0
CLASS
  1
ACAMCOMPDEF
  2
AcAmCompDef
  3
DesignerAssemblies
 90
     1024
280
     0
281
     0
  0
CLASS
  1
ACAMCOMPDEFMGR
  2
AcAmCompDefMgr
  3
DesignerAssemblies
 90
     1024
280
     0
281
     0
  0
CLASS
  1
AMCONTEXTMGR
  2
AcAmContextMgr
  3
DesignerAssemblies
 90
     1024
280
     0
281
     0
  0
CLASS
  1
ACAMCONTEXTMODELER
  2
AcAmContextModeler
  3
DesignerAssemblies
 90
     1024
280
     0
281
     0
  0
CLASS
  1
ACMDATADICTIONARY
  2
AcmDataDictionary
  3
"AcmSymBB|Product Description: AutoCAD Mechanical|Company: Autodesk, Inc."
 90
     1024
280
     0
281
     0
  0
CLASS
  1
ACAMGRCOMPDEFSET
  2
AcAmGrCompDefSet
  3
DesignerAssemblies
 90
     1024
280
     0
281
     0
  0
CLASS
  1
AMDTBROWSERDBTAB
  2
AmdtBrowserDbTab
  3
McadcomServices
 90
     1024
280
     0
281
     0
  0
CLASS
  1
CBROWSERAPPOBJECT
  2
CBrowserAppObject
  3
McadcomServices
 90
     1024
280
     0
281
     0
  0
CLASS
  1
DM_PLACEHOLDER
  2
AcDmSelsetPlaceholder
  3
McadcomServices
 90
     1024
280
     0
281
     0
  0
CLASS
  1
EXACXREFPANELOBJECT
  2
ExAcXREFPanelObject
  3
EXAC_ESW
 90
    33793
280
     0
281
     0
  0
CLASS
  1
NPOCOLLECTION
  2
AcDbImpNonPersistentObjectsCollection
  3
ObjectDBX Classes
 90
    33921
280
     0
281
     0
  0
CLASS
  1
ACMSTANDARDISO
  2
AcmStandardISO
  3
"Amdt_StdImp|Product Description: AutoCAD Mechanical|Company: Autodesk, Inc."
 90
     1024
280
     0
281
     0
  0
CLASS
  1
AMDTEDGESTANDARDISO13715
  2
AmdtEdgeStdISO13715
  3
"Amdt_StdImp|Product Description: AutoCAD Mechanical|Company: Autodesk, Inc."
 90
     1024
280
     0
281
     0
  0
CLASS
  1
ACMSURFSTANDARDISO2002
  2
AcmSurfTextStdISO2002
  3
"Amdt_StdImp|Product Description: AutoCAD Mechanical|Company: Autodesk, Inc."
 90
     1024
280
     0
281
     0
  0
CLASS
  1
ACMFCFSTANDARDISO
  2
AcmFCFStdISO
  3
"Amdt_StdImp|Product Description: AutoCAD Mechanical|Company: Autodesk, Inc."
 90
    33792
280
     0
281
     0
  0
CLASS
  1
ACMWELDSTANDARDISO
  2
AcmWeldingStdISO
  3
"Amdt_StdImp|Product Description: AutoCAD Mechanical|Company: Autodesk, Inc."
 90
     1024
280
     0
281
     0
  0
CLASS
  1
ACMIDSTANDARDISO
  2
AcmIdStdISO
  3
"Amdt_StdImp|Product Description: AutoCAD Mechanical|Company: Autodesk, Inc."
 90
    33792
280
     0
281
     0
  0
CLASS
  1
ACMDATUMSTANDARDISO
  2
AcmDatumStdISO
  3
"Amdt_StdImp|Product Description: AutoCAD Mechanical|Company: Autodesk, Inc."
 90
     1024
280
     0
281
     0
  0
CLASS
  1
ACMBOMSTANDARDISO
  2
AcmBOMStdISO
  3
"Amdt_StdImp|Product Description: AutoCAD Mechanical|Company: Autodesk, Inc."
 90
     1024
280
     0
281
     0
  0
CLASS
  1
ACMDETAILSTANDARDISO
  2
AmdtDetailSymStdISO
  3
"Amdt_StdImp|Product Description: AutoCAD Mechanical|Company: Autodesk, Inc."
 90
     1024
280
     0
281
     0
  0
CLASS
  1
ACMSECTIONSTANDARDISO2001
  2
AmdtSectionSymStdISO2001
  3
"Amdt_StdImp|Product Description: AutoCAD Mechanical|Company: Autodesk, Inc."
 90
     1024
280
     0
281
     0
  0
CLASS
  1
ACMCENTERLINESTANDARDISO
  2
AmdtCenterLineStdISO
  3
"Amdt_StdImp|Product Description: AutoCAD Mechanical|Company: Autodesk, Inc."
 90
     1024
280
     0
281
     0
  0
CLASS
  1
ACMTHREADLINESTANDARDISO
  2
AmdtThreadLineStdISO
  3
"Amdt_StdImp|Product Description: AutoCAD Mechanical|Company: Autodesk, Inc."
 90
     1024
280
     0
281
     0
  0
CLASS
  1
ACMNOTESTANDARDISO
  2
AmdtNoteStdISO
  3
"Amdt_StdImp|Product Description: AutoCAD Mechanical|Company: Autodesk, Inc."
 90
     1024
280
     0
281
     0
  0
CLASS
  1
ACMTAPERSTANDARDISO
  2
AcmTaperStdISO
  3
"Amdt_StdImp|Product Description: AutoCAD Mechanical|Company: Autodesk, Inc."
 90
     1024
280
     0
281
     0
  0
CLASS
  1
ACMANOOTATIONVIEWSTANDARDISO
  2
AmdtAnViewStdISO
  3
"Amdt_StdImp|Product Description: AutoCAD Mechanical|Company: Autodesk, Inc."
 90
     1024
280
     0
281
     0
  0
CLASS
  1
ACAMGLAYSTD
  2
AcAmgLayStd
  3
"AmgLay|Product Description: AutoCAD Mechanical|Company: Autodesk, Inc."
 90
     1024
280
     0
281
     0
  0
CLASS
  1
ACAMGDIMSTD
  2
AcAmgDimStd
  3
"AmgDim|Product Description: AutoCAD Mechanical|Company: Autodesk, Inc."
 90
     1024
280
     0
281
     0
  0
CLASS
  1
AMGOBJPROPCFG
  2
AmgObjPropCfg
  3
"AmgLay|Product Description: AutoCAD Mechanical|Company: Autodesk, Inc."
 90
     1025
280
     0
281
     0
  0
CLASS
  1
ACAMGHOLECHARTSTDISO
  2
AcAmgHoleChartStdISO
  3
AmgDim|Product Description: AutoCAD Mechanical|Company: Autodesk, Inc.
 90
     1024
280
     0
281
     0
  0
CLASS
  1
ACAMGTITLESTD
  2
AcAmgTitleStd
  3
"AmgTitle|Product Description: AutoCAD Mechanical|Company: Autodesk, Inc."
 90
     4095
280
     0
281
     0
  0
CLASS
  1
AMDTNOTETEMPLATEDB
  2
AmdtNoteTemplateDB
  3
AcmSymBB|Product Description: AutoCAD Mechanical|Company: Autodesk, Inc.
 90
     1024
280
     0
281
     0
  0
CLASS
  1
ACAMGFILTERDAT
  2
AcAmgFilterDat
  3
"AcadM|Product Description: AutoCAD Mechanical|Company: Autodesk, Inc."
 90
    33792
280
     0
281
     0
  0
CLASS
  1
CELLSTYLEMAP
  2
AcDbCellStyleMap
  3
ObjectDBX Classes
 90
     1152
280
     0
281
     0
  0
CLASS
  1
ACDBPLACEHOLDER
  2
AcDbPlaceHolder
  3
ObjectDBX Classes
 90
        0
280
     0
281
     0
  0
CLASS
  1
LAYOUT
  2
AcDbLayout
  3
ObjectDBX Classes
 90
        0
280
     0
281
     0
  0
CLASS
  1
CAMSSTRUCTBTNSTATE
  2
StructBtnState
  3
DesignerAssemblies
 90
    33792
280
     0
281
     0
  0
CLASS
  1
ACSH_EXTRUSION_CLASS
  2
AcDbShExtrusion
  3
ObjectDBX Classes
 90
    33921
280
     0
281
     0
  0
CLASS
  1
ACAD_EVALUATION_GRAPH
  2
AcDbEvalGraph
  3
ObjectDBX Classes
 90
    33921
280
     0
281
     0
  0
CLASS
  1
ACSH_HISTORY_CLASS
  2
AcDbShHistory
  3
ObjectDBX Classes
 90
    33921
280
     0
281
     0
  0
CLASS
  1
ACDBASSOCPERSSUBENTMANAGER
  2
AcDbAssocPersSubentManager
  3
ObjectDBX Classes
 90
     1024
280
     0
281
     0
  0
CLASS
  1
ACDBPERSSUBENTMANAGER
  2
AcDbPersSubentManager
  3
AcDbPersSubentManager
 90
     1024
280
     0
281
     0
  0
CLASS
  1
ACSH_BOOLEAN_CLASS
  2
AcDbShBoolean
  3
ObjectDBX Classes
 90
    33921
280
     0
281
     0
  0
CLASS
  1
ACSH_REVOLVE_CLASS
  2
AcDbShRevolve
  3
ObjectDBX Classes
 90
    33921
280
     0
281
     0
  0
CLASS
  1
SOLID_BACKGROUND
  2
AcDbSolidBackground
  3
SCENEOE
 90
    36863
280
     0
281
     0
  0
CLASS
  1
ACMDIMBREAKPERSREACTOR
  2
AcmDimBreakPersReactor
  3
AmgDim|Product Description: AutoCAD Mechanical|Company: Autodesk, Inc.
 90
    36863
280
     0
281
     0
  0
CLASS
  1
ACDBSECTIONVIEWSTYLE
  2
AcDbSectionViewStyle
  3
ObjectDBX Classes
 90
     1025
280
     0
281
     0
  0
CLASS
  1
ACDBDETAILVIEWSTYLE
  2
AcDbDetailViewStyle
  3
ObjectDBX Classes
 90
     1025
280
     0
281
     0
  0
CLASS
  1
AEC_REFEDIT_STATUS_TRACKER
  2
AecDbRefEditStatusTracker
  3
AecArchBase60|Product Desc: Autodesk Architectural Desktop 2007 |Company: Autodesk,Inc. |WEB Address: www.autodesk.com
 90
    32897
280
     0
281
     0
  0
CLASS
  1
ACMFCFSTANDARDISO2004
  2
AcmFCFStdISO2004
  3
"Amdt_StdImp|Product Description: AutoCAD Mechanical|Company: Autodesk, Inc."
 90
     1024
280
     0
281
     0
  0
CLASS
  1
ACMIDSTANDARDISO2004
  2
AcmIdStdISO2004
  3
"Amdt_StdImp|Product Description: AutoCAD Mechanical|Company: Autodesk, Inc."
 90
     1024
280
     0
281
     0
  0
ENDSEC
  0
SECTION
  2
TABLES
  0
TABLE
  2
VPORT
  5
8
102
{ACAD_XDICTIONARY
360
13AFC
102
}
330
0
100
AcDbSymbolTable
 70
     1
  0
VPORT
  5
132D2
330
8
100
AcDbSymbolTableRecord
100
AcDbViewportTableRecord
  2
*Active
 70
     0
 10
0.0
 20
0.0
 11
1.0
 21
1.0
 12
350.0106852268923
 22
237.5000011059455
 13
0.0
 23
0.0
 14
10.0
 24
10.0
 15
10.0
 25
10.0
 16
0.0
 26
0.0
 36
1.0
 17
0.0
 27
0.0
 37
0.0
 40
480.6285475935465
 41
2.318897637795275
 42
50.0
 43
0.0
 44
0.0
 50
0.0
 51
0.0
 71
     0
 72
 20000
 73
     1
 74
     3
 75
     0
 76
     0
 77
     0
 78
     0
281
     0
 65
     1
110
0.0
120
0.0
130
0.0
111
1.0
121
0.0
131
0.0
112
0.0
122
1.0
132
0.0
 79
     0
146
0.0
1001
ACAD_NAV_VCDISPLAY
1070
     3
  0
ENDTAB
  0
TABLE
  2
LTYPE
  5
5
330
0
100
AcDbSymbolTable
 70
    23
  0
LTYPE
  5
14
330
5
100
AcDbSymbolTableRecord
100
AcDbLinetypeTableRecord
  2
ByBlock
 70
     0
  3

 72
    65
 73
     0
 40
0.0
  0
LTYPE
  5
15
330
5
100
AcDbSymbolTableRecord
100
AcDbLinetypeTableRecord
  2
ByLayer
 70
     0
  3

 72
    65
 73
     0
 40
0.0
  0
LTYPE
  5
16
330
5
100
AcDbSymbolTableRecord
100
AcDbLinetypeTableRecord
  2
Continuous
 70
     0
  3
Solid line
 72
    65
 73
     0
 40
0.0
  0
LTYPE
  5
10A
330
5
100
AcDbSymbolTableRecord
100
AcDbLinetypeTableRecord
  2
CENTER2
 70
     0
  3
Center (.5x) ___ _ ___ _ ___ _ ___ _ ___ _ ___
 72
    65
 73
     4
 40
28.575
 49
19.05
 74
     0
 49
-3.174999999999999
 74
     0
 49
3.174999999999999
 74
     0
 49
-3.174999999999999
 74
     0
  0
LTYPE
  5
13393
330
5
100
AcDbSymbolTableRecord
100
AcDbLinetypeTableRecord
  2
AM_ISO02W050
 70
     0
  3
__ __ __ __ __ __ __ __ __ __ __ __ __ __ __
 72
    65
 73
     2
 40
7.5
 49
6.0
 74
     0
 49
-1.5
 74
     0
  0
LTYPE
  5
13394
330
5
100
AcDbSymbolTableRecord
100
AcDbLinetypeTableRecord
  2
AM_ISO08W050
 70
     0
  3
____ . ____ . ____ . ____ . ____ . ____ . ____
 72
    65
 73
     4
 40
18.0
 49
12.0
 74
     0
 49
-1.5
 74
     0
 49
3.0
 74
     0
 49
-1.5
 74
     0
  0
LTYPE
  5
13395
330
5
100
AcDbSymbolTableRecord
100
AcDbLinetypeTableRecord
  2
AM_ISO09W050
 70
     0
  3
_____ . . _____ . . _____ . . ____ .. ____
 72
    65
 73
     6
 40
22.5
 49
12.0
 74
     0
 49
-1.5
 74
     0
 49
3.0
 74
     0
 49
-1.5
 74
     0
 49
3.0
 74
     0
 49
-1.5
 74
     0
  0
LTYPE
  5
13396
330
5
100
AcDbSymbolTableRecord
100
AcDbLinetypeTableRecord
  2
Amconstr
 70
     0
  3
_______________________
 72
    65
 73
     2
 40
9999.0
 49
9999.0
 74
     0
 49
0.0
 74
     0
  0
LTYPE
  5
13397
330
5
100
AcDbSymbolTableRecord
100
AcDbLinetypeTableRecord
  2
AM_ISO08W050x2
 70
     0
  3
__ . __ . __ . __ . __ . __
 72
    65
 73
     4
 40
9.0
 49
6.0
 74
     0
 49
-0.75
 74
     0
 49
1.5
 74
     0
 49
-0.75
 74
     0
  0
LTYPE
  5
13398
330
5
100
AcDbSymbolTableRecord
100
AcDbLinetypeTableRecord
  2
AM_ISO02W050x2
 70
     0
  3
 _ _ _ _ _ _ _ _ _ _ _ _
 72
    65
 73
     2
 40
3.75
 49
3.0
 74
     0
 49
-0.75
 74
     0
  0
LTYPE
  5
1339B
330
5
100
AcDbSymbolTableRecord
100
AcDbLinetypeTableRecord
  2
Amzigzag
 70
     0
  3
/\/-/\/-/\/-/\/-/\/-/\/
 72
    65
 73
     2
 40
11.0001
 49
0.0001
 74
     4
 75
   136
340
1339A
 46
0.04
 50
0.0
 44
0.0
 45
0.0
 49
-11.0
 74
     0
  0
LTYPE
  5
133AA
330
5
100
AcDbSymbolTableRecord
100
AcDbLinetypeTableRecord
  2
ACISOWELD
 70
     0
  3
_ _ _ _ _
 72
    65
 73
     2
 40
2.0
 49
2.0
 74
     0
 49
-1.0
 74
     0
  0
LTYPE
  5
133AB
330
5
100
AcDbSymbolTableRecord
100
AcDbLinetypeTableRecord
  2
ACISOTGB
 70
     0
  3
__ . . __ . .
 72
    65
 73
     6
 40
9.0
 49
4.0
 74
     0
 49
-1.0
 74
     0
 49
1.0
 74
     0
 49
-1.0
 74
     0
 49
1.0
 74
     0
 49
-1.0
 74
     0
  0
LTYPE
  5
133AC
330
5
100
AcDbSymbolTableRecord
100
AcDbLinetypeTableRecord
  2
ACISOTGL
 70
     0
  3
_ _ _ _ _
 72
    65
 73
     2
 40
3.0
 49
2.0
 74
     0
 49
-1.0
 74
     0
  0
ENDTAB
  0
TABLE
  2
LAYER
  5
2
102
{ACAD_XDICTIONARY
360
86D
102
}
330
0
100
AcDbSymbolTable
 70
    13
  0
LAYER
  5
10
102
{ACAD_XDICTIONARY
360
13AE6
102
}
330
2
100
AcDbSymbolTableRecord
100
AcDbLayerTableRecord
  2
0
 70
     0
 62
     7
  6
Continuous
370
    -3
390
F
  0
LAYER
  5
112
102
{ACAD_XDICTIONARY
360
13AE8
102
}
330
2
100
AcDbSymbolTableRecord
100
AcDbLayerTableRecord
  2
mark
 70
     0
 62
     6
  6
Continuous
370
    -3
390
F
  0
LAYER
  5
114
102
{ACAD_XDICTIONARY
360
13AEA
102
}
330
2
100
AcDbSymbolTableRecord
100
AcDbLayerTableRecord
  2
center
 70
     0
 62
     1
  6
CENTER2
370
    -3
390
F
  0
LAYER
  5
8A7
330
2
100
AcDbSymbolTableRecord
100
AcDbLayerTableRecord
  2
Defpoints
 70
     0
 62
     7
  6
Continuous
290
     0
370
    -3
390
F
  0
LAYER
  5
8A8
102
{ACAD_XDICTIONARY
360
13AEC
102
}
330
2
100
AcDbSymbolTableRecord
100
AcDbLayerTableRecord
  2
frame
 70
     0
 62
     9
  6
Continuous
370
    30
390
F
  0
LAYER
  5
8A9
102
{ACAD_XDICTIONARY
360
13AEE
102
}
330
2
100
AcDbSymbolTableRecord
100
AcDbLayerTableRecord
  2
dim
 70
     0
 62
     3
  6
Continuous
370
    -3
390
F
1001
AcAecLayerStandard
1000

1000

  0
LAYER
  5
8AA
102
{ACAD_XDICTIONARY
360
13AF0
102
}
330
2
100
AcDbSymbolTableRecord
100
AcDbLayerTableRecord
  2
contour
 70
     0
 62
     2
  6
Continuous
370
    -3
390
F
1001
AcAecLayerStandard
1000

1000

  0
LAYER
  5
4693
102
{ACAD_XDICTIONARY
360
13AF4
102
}
330
2
100
AcDbSymbolTableRecord
100
AcDbLayerTableRecord
  2
section
 70
     0
 62
     5
  6
Continuous
370
    -3
390
F
1001
AcAecLayerStandard
1000

1000

  0
ENDTAB
  0
TABLE
  2
STYLE
  5
3
330
0
100
AcDbSymbolTable
 70
     9
  0
STYLE
  5
11
330
3
100
AcDbSymbolTableRecord
100
AcDbTextStyleTableRecord
  2
Standard
 70
     0
 40
0.0
 41
1.0
 50
0.0
 71
     0
 42
2.5
  3
txt.shx
  4
bigfont.shx
  0
STYLE
  5
8AE
330
3
100
AcDbSymbolTableRecord
100
AcDbTextStyleTableRecord
  2
CN
 70
     0
 40
0.0
 41
1.0
 50
0.0
 71
     0
 42
6.0
  3
txt.shx
  4
gbcbig.shx
  0
STYLE
  5
1339A
330
3
100
AcDbSymbolTableRecord
100
AcDbTextStyleTableRecord
  2

 70
     1
 40
0.0
 41
1.0
 50
0.0
 71
     0
 42
6.0
  3
genltshp.shx
  4

  0
STYLE
  5
133A9
330
3
100
AcDbSymbolTableRecord
100
AcDbTextStyleTableRecord
  2
ACISOGDT
 70
     0
 40
0.0
 41
1.0
 50
0.0
 71
     0
 42
6.0
  3
amgdt.shx
  4

  0
STYLE
  5
19F2C
330
3
100
AcDbSymbolTableRecord
100
AcDbTextStyleTableRecord
  2
LKK
 70
     0
 40
50.0
 41
1.5
 50
0.0
 71
     0
 42
50.0
  3
MS PGothic.ttf
  4

1001
ACAD
1000
MS PGothic
1071
    32818
  0
STYLE
  5
19F2D
330
3
100
AcDbSymbolTableRecord
100
AcDbTextStyleTableRecord
  2
JL
 70
     0
 40
10.0
 41
0.5
 50
0.0
 71
     0
 42
5.0
  3
MS Mincho.ttf
  4

1001
ACAD
1000
MS Mincho
1071
    32785
  0
ENDTAB
  0
TABLE
  2
VIEW
  5
6
330
0
100
AcDbSymbolTable
 70
     1
  0
ENDTAB
  0
TABLE
  2
UCS
  5
7
330
0
100
AcDbSymbolTable
 70
     0
  0
ENDTAB
  0
TABLE
  2
APPID
  5
9
330
0
100
AcDbSymbolTable
 70
    31
  0
APPID
  5
12
330
9
100
AcDbSymbolTableRecord
100
AcDbRegAppTableRecord
  2
ACAD
 70
     0
  0
APPID
  5
9E
330
9
100
AcDbSymbolTableRecord
100
AcDbRegAppTableRecord
  2
ACAD_PSEXT
 70
     0
  0
APPID
  5
8AF
330
9
100
AcDbSymbolTableRecord
100
AcDbRegAppTableRecord
  2
AcAecLayerStandard
 70
     0
  0
APPID
  5
8B0
330
9
100
AcDbSymbolTableRecord
100
AcDbRegAppTableRecord
  2
ACAD_DSTYLE_DIMEXT_LENGTH
 70
     0
  0
APPID
  5
8B1
330
9
100
AcDbSymbolTableRecord
100
AcDbRegAppTableRecord
  2
ACAD_DSTYLE_DIMEXT_ENABLED
 70
     0
  0
APPID
  5
8B2
330
9
100
AcDbSymbolTableRecord
100
AcDbRegAppTableRecord
  2
ACAD_DSTYLE_DIMJOGGED_JOGANGLE_SYMBOL
 70
     0
  0
APPID
  5
8B3
330
9
100
AcDbSymbolTableRecord
100
AcDbRegAppTableRecord
  2
ACAD_DSTYLE_DIMARC_LENGTH_SYMBOL
 70
     0
  0
APPID
  5
9CF
330
9
100
AcDbSymbolTableRecord
100
AcDbRegAppTableRecord
  2
ACAD_EXEMPT_FROM_CAD_STANDARDS
 70
     0
  0
APPID
  5
A09
330
9
100
AcDbSymbolTableRecord
100
AcDbRegAppTableRecord
  2
ACAD_DSTYLE_DIMTEXT_FILL
 70
     0
  0
APPID
  5
A0C
330
9
100
AcDbSymbolTableRecord
100
AcDbRegAppTableRecord
  2
ACAD_DSTYLE_DIM_LINETYPE
 70
     0
  0
APPID
  5
A0D
330
9
100
AcDbSymbolTableRecord
100
AcDbRegAppTableRecord
  2
ACAD_DSTYLE_DIM_EXT1_LINETYPE
 70
     0
  0
APPID
  5
A0E
330
9
100
AcDbSymbolTableRecord
100
AcDbRegAppTableRecord
  2
ACAD_DSTYLE_DIM_EXT2_LINETYPE
 70
     0
  0
APPID
  5
13319
330
9
100
AcDbSymbolTableRecord
100
AcDbRegAppTableRecord
  2
ACADSTRINGINFO
 70
     0
  0
APPID
  5
13328
330
9
100
AcDbSymbolTableRecord
100
AcDbRegAppTableRecord
  2
MCAD_NO_VIS
 70
     0
  0
APPID
  5
13329
330
9
100
AcDbSymbolTableRecord
100
AcDbRegAppTableRecord
  2
ACAD_TEMP_GRAPHIC
 70
     0
  0
APPID
  5
13355
330
9
100
AcDbSymbolTableRecord
100
AcDbRegAppTableRecord
  2
AD_DRAW
 70
     0
  0
APPID
  5
13358
330
9
100
AcDbSymbolTableRecord
100
AcDbRegAppTableRecord
  2
ACATTRIBSERVICES
 70
     0
  0
APPID
  5
13371
330
9
100
AcDbSymbolTableRecord
100
AcDbRegAppTableRecord
  2
DESIGNERASSEMBLIES
 70
     0
  0
APPID
  5
13376
330
9
100
AcDbSymbolTableRecord
100
AcDbRegAppTableRecord
  2
ACADM_DIM_EDIT
 70
     0
  0
APPID
  5
13377
330
9
100
AcDbSymbolTableRecord
100
AcDbRegAppTableRecord
  2
AMDT_DM_ADJ
 70
     0
  0
APPID
  5
13390
330
9
100
AcDbSymbolTableRecord
100
AcDbRegAppTableRecord
  2
ACAD_DSTYLE_DIMJAG
 70
     0
  0
APPID
  5
13391
330
9
100
AcDbSymbolTableRecord
100
AcDbRegAppTableRecord
  2
ACAD_DSTYLE_DIMBREAK
 70
     0
  0
APPID
  5
13913
330
9
100
AcDbSymbolTableRecord
100
AcDbRegAppTableRecord
  2
GENIUS_GENDTOL_13
 70
     0
  0
APPID
  5
13B5E
330
9
100
AcDbSymbolTableRecord
100
AcDbRegAppTableRecord
  2
ACAD_MLEADERVER
 70
     0
  0
APPID
  5
13D0E
330
9
100
AcDbSymbolTableRecord
100
AcDbRegAppTableRecord
  2
GRADIENTCOLOR1ACI
 70
     0
  0
APPID
  5
13D0F
330
9
100
AcDbSymbolTableRecord
100
AcDbRegAppTableRecord
  2
GRADIENTCOLOR2ACI
 70
     0
  0
APPID
  5
13F8F
330
9
100
AcDbSymbolTableRecord
100
AcDbRegAppTableRecord
  2
ACAD_DSTYLE_DIMRADIAL_EXTENSION
 70
     0
  0
APPID
  5
18E12
330
9
100
AcDbSymbolTableRecord
100
AcDbRegAppTableRecord
  2
ACAD_DSTYLE_DIMTALN
 70
     0
  0
APPID
  5
1FBF9
330
9
100
AcDbSymbolTableRecord
100
AcDbRegAppTableRecord
  2
ACAD_DSTYLE_DIMINSPECT
 70
     0
  0
APPID
  5
2144E
330
9
100
AcDbSymbolTableRecord
100
AcDbRegAppTableRecord
  2
ACAD_NAV_VCDISPLAY
 70
     0
  0
APPID
  5
2173C
330
9
100
AcDbSymbolTableRecord
100
AcDbRegAppTableRecord
  2
ACLAYERTOOLS
 70
     0
  0
ENDTAB
  0
TABLE
  2
DIMSTYLE
  5
A
330
0
100
AcDbSymbolTable
 70
    20
100
AcDbDimStyleTable
 71
     1
340
5822
  0
DIMSTYLE
105
5822
102
{ACAD_REACTORS
330
211CC
330
211CD
330
22782
330
22785
330
22786
330
227E1
330
227E4
330
227E7
330
227E8
330
227EB
330
227F0
330
2282E
330
22831
330
22834
330
22837
102
}
330
A
100
AcDbSymbolTableRecord
100
AcDbDimStyleTableRecord
  2
Standard
 70
     0
 40
2.5
 41
3.5
 42
1.35
 44
1.35
 73
     0
 74
     0
 77
     1
 78
     8
 79
     2
140
3.5
147
1.35
172
     1
176
   256
177
   256
178
     3
179
     2
271
     2
272
     2
340
11
341
87B
342
87B
1001
ACAD_DSTYLE_DIMJOGGED_JOGANGLE_SYMBOL
1070
   384
1040
0.7853981633974483
1001
ACAD_DSTYLE_DIMJAG
1070
   388
1040
1.5
1001
ACAD_DSTYLE_DIMTALN
1070
   392
1070
     0
1001
ACAD_DSTYLE_DIMEXT_LENGTH
1070
   378
1040
0.18
  0
DIMSTYLE
105
1338F
102
{ACAD_REACTORS
330
22CCE
102
}
330
A
100
AcDbSymbolTableRecord
100
AcDbDimStyleTableRecord
  2
AM_ISO
 70
     0
  4
"
 41
3.5
 42
1.0
 43
10.0
 44
1.0
 47
0.1
 48
0.1
 73
     0
 74
     0
 77
     1
 78
     8
 79
     2
140
3.5
141
0.0
143
0.0393701
146
0.71
147
1.5
172
     1
176
   256
177
   256
178
     2
271
     2
272
     3
274
     4
283
     0
284
     8
340
11
371
    -1
372
    -1
1001
ACAD_DSTYLE_DIMJAG
1070
   388
1040
1.5
1001
ACAD_DSTYLE_DIMBREAK
1070
   391
1040
3.75
1001
ACAD_DSTYLE_DIMARC_LENGTH_SYMBOL
1070
   379
1070
     1
1001
ACAD_DSTYLE_DIM_LINETYPE
1070
   380
1005
14
1001
ACAD_DSTYLE_DIM_EXT1_LINETYPE
1070
   381
1005
14
1001
ACAD_DSTYLE_DIM_EXT2_LINETYPE
1070
   382
1005
14
  0
DIMSTYLE
105
1339C
330
A
100
AcDbSymbolTableRecord
100
AcDbDimStyleTableRecord
  2
AM_ISO$3
 70
     0
  4
"
 41
3.5
 42
1.0
 43
10.0
 44
1.0
 47
0.1
 48
0.1
 73
     0
 77
     1
 78
     8
 79
     2
140
3.5
141
0.0
143
0.0393701
146
0.71
147
1.5
176
   256
177
   256
178
     2
271
     2
272
     3
274
     4
283
     0
284
     8
288
     1
289
     0
340
11
371
    -1
372
    -1
1001
ACAD_DSTYLE_DIMBREAK
1070
   391
1040
3.75
1001
ACAD_DSTYLE_DIMJAG
1070
   388
1040
1.5
1001
ACAD_DSTYLE_DIMARC_LENGTH_SYMBOL
1070
   379
1070
     1
1001
ACAD_DSTYLE_DIM_LINETYPE
1070
   380
1005
14
1001
ACAD_DSTYLE_DIM_EXT1_LINETYPE
1070
   381
1005
14
1001
ACAD_DSTYLE_DIM_EXT2_LINETYPE
1070
   382
1005
14
  0
DIMSTYLE
105
1339D
330
A
100
AcDbSymbolTableRecord
100
AcDbDimStyleTableRecord
  2
AM_ISO$4
 70
     0
  4
"
 41
3.5
 42
1.0
 43
10.0
 44
1.0
 47
0.1
 48
0.1
 73
     0
 77
     1
 78
     8
 79
     2
140
3.5
141
0.0
143
0.0393701
146
0.71
147
1.5
176
   256
177
   256
178
     2
271
     2
272
     3
274
     4
283
     0
284
     8
288
     1
289
     0
340
11
371
    -1
372
    -1
1001
ACAD_DSTYLE_DIMBREAK
1070
   391
1040
3.75
1001
ACAD_DSTYLE_DIMJAG
1070
   388
1040
1.5
1001
ACAD_DSTYLE_DIMARC_LENGTH_SYMBOL
1070
   379
1070
     1
1001
ACAD_DSTYLE_DIM_LINETYPE
1070
   380
1005
14
1001
ACAD_DSTYLE_DIM_EXT1_LINETYPE
1070
   381
1005
14
1001
ACAD_DSTYLE_DIM_EXT2_LINETYPE
1070
   382
1005
14
  0
DIMSTYLE
105
1339E
330
A
100
AcDbSymbolTableRecord
100
AcDbDimStyleTableRecord
  2
AM_ISO$6
 70
     0
  4
"
 41
3.5
 42
1.0
 43
10.0
 44
1.0
 47
0.1
 48
0.1
 73
     0
 74
     0
 78
     8
 79
     2
140
3.5
141
0.0
143
0.0393701
146
0.71
147
1.5
172
     1
176
   256
177
   256
178
     2
271
     2
272
     3
274
     4
283
     0
284
     8
340
11
371
    -1
372
    -1
1001
ACAD_DSTYLE_DIMBREAK
1070
   391
1040
3.75
1001
ACAD_DSTYLE_DIMJAG
1070
   388
1040
1.5
1001
ACAD_DSTYLE_DIMARC_LENGTH_SYMBOL
1070
   379
1070
     1
1001
ACAD_DSTYLE_DIM_LINETYPE
1070
   380
1005
14
1001
ACAD_DSTYLE_DIM_EXT1_LINETYPE
1070
   381
1005
14
1001
ACAD_DSTYLE_DIM_EXT2_LINETYPE
1070
   382
1005
14
  0
DIMSTYLE
105
1339F
330
A
100
AcDbSymbolTableRecord
100
AcDbDimStyleTableRecord
  2
AM_ISO$7
 70
     0
  4
"
 41
3.5
 42
1.0
 43
10.0
 44
1.0
 47
0.1
 48
0.1
 73
     0
 74
     0
 77
     1
 78
     8
 79
     2
140
3.5
141
0.0
143
0.0393701
146
0.71
147
1.5
172
     1
176
   256
177
   256
178
     2
271
     2
272
     3
274
     4
283
     0
284
     8
340
11
371
    -1
372
    -1
1001
ACAD_DSTYLE_DIMBREAK
1070
   391
1040
3.75
1001
ACAD_DSTYLE_DIMJAG
1070
   388
1040
1.5
1001
ACAD_DSTYLE_DIMARC_LENGTH_SYMBOL
1070
   379
1070
     1
1001
ACAD_DSTYLE_DIM_LINETYPE
1070
   380
1005
14
1001
ACAD_DSTYLE_DIM_EXT1_LINETYPE
1070
   381
1005
14
1001
ACAD_DSTYLE_DIM_EXT2_LINETYPE
1070
   382
1005
14
  0
DIMSTYLE
105
133A0
330
A
100
AcDbSymbolTableRecord
100
AcDbDimStyleTableRecord
  2
AM_ISO$SF
 70
     0
  4
"
 41
3.5
 42
1.0
 43
10.0
 44
1.0
 47
0.1
 48
0.1
 73
     0
 74
     0
 75
     1
 76
     1
 77
     1
 78
     8
 79
     2
140
3.5
141
0.0
143
0.0393701
146
0.71
147
1.5
172
     1
176
   256
177
   256
178
     2
271
     2
272
     3
274
     4
283
     0
284
     8
340
11
371
    -1
372
    -1
1001
ACAD_DSTYLE_DIMBREAK
1070
   391
1040
3.75
1001
ACAD_DSTYLE_DIMJAG
1070
   388
1040
1.5
1001
ACAD_DSTYLE_DIMARC_LENGTH_SYMBOL
1070
   379
1070
     1
1001
ACAD_DSTYLE_DIM_LINETYPE
1070
   380
1005
14
1001
ACAD_DSTYLE_DIM_EXT1_LINETYPE
1070
   381
1005
14
1001
ACAD_DSTYLE_DIM_EXT2_LINETYPE
1070
   382
1005
14
  0
DIMSTYLE
105
133A5
330
A
100
AcDbSymbolTableRecord
100
AcDbDimStyleTableRecord
  2
AM_ISO$SH
 70
     0
  4
"
 41
3.5
 42
1.0
 43
10.0
 44
1.0
 47
0.1
 48
0.1
 73
     0
 74
     0
 75
     1
 76
     1
 77
     1
 78
     8
 79
     2
140
3.5
141
0.0
143
0.0393701
144
2.0
146
0.71
147
1.5
172
     1
173
     1
176
   256
177
   256
178
     2
271
     2
272
     3
274
     4
283
     0
284
     8
340
11
343
133A1
371
    -1
372
    -1
1001
ACAD_DSTYLE_DIMBREAK
1070
   391
1040
3.75
1001
ACAD_DSTYLE_DIMJAG
1070
   388
1040
1.5
1001
ACAD_DSTYLE_DIMARC_LENGTH_SYMBOL
1070
   379
1070
     1
1001
ACAD_DSTYLE_DIM_LINETYPE
1070
   380
1005
14
1001
ACAD_DSTYLE_DIM_EXT1_LINETYPE
1070
   381
1005
14
1001
ACAD_DSTYLE_DIM_EXT2_LINETYPE
1070
   382
1005
14
  0
ENDTAB
  0
TABLE
  2
BLOCK_RECORD
  5
1
330
0
100
AcDbSymbolTable
 70
    74
  0
BLOCK_RECORD
  5
1F
102
{ACAD_XDICTIONARY
360
9D7
102
}
330
1
100
AcDbSymbolTableRecord
100
AcDbBlockTableRecord
  2
*Model_Space
340
22
  0
BLOCK_RECORD
  5
D2
330
1
100
AcDbSymbolTableRecord
100
AcDbBlockTableRecord
  2
*Paper_Space
340
D3
  0
BLOCK_RECORD
  5
D6
330
1
100
AcDbSymbolTableRecord
100
AcDbBlockTableRecord
  2
*Paper_Space0
340
D7
  0
BLOCK_RECORD
  5
87B
330
1
100
AcDbSymbolTableRecord
100
AcDbBlockTableRecord
  2
_Open30
340
0
102
{BLKREFS
331
22CFD
331
22CFE
331
22D06
331
22D07
331
22D0F
331
22D10
331
22D18
331
22D19
331
22D21
331
22D22
331
22D2A
331
22D2B
331
22D34
331
22D35
331
22D3B
331
22D3C
331
22D44
331
22D45
331
22D4F
331
22D50
331
22D5A
331
22D5B
331
22CEB
331
22CEC
331
22CF4
331
22CF5
102
}
  0
BLOCK_RECORD
  5
133A1
330
1
100
AcDbSymbolTableRecord
100
AcDbBlockTableRecord
  2
GENAXEH
340
0
  0
BLOCK_RECORD
  5
2284E
330
1
100
AcDbSymbolTableRecord
100
AcDbBlockTableRecord
  2
*D59
340
0
  0
BLOCK_RECORD
  5
2285A
330
1
100
AcDbSymbolTableRecord
100
AcDbBlockTableRecord
  2
*D60
340
0
  0
BLOCK_RECORD
  5
22866
330
1
100
AcDbSymbolTableRecord
100
AcDbBlockTableRecord
  2
*D61
340
0
  0
BLOCK_RECORD
  5
22871
330
1
100
AcDbSymbolTableRecord
100
AcDbBlockTableRecord
  2
*D62
340
0
  0
BLOCK_RECORD
  5
22886
330
1
100
AcDbSymbolTableRecord
100
AcDbBlockTableRecord
  2
*D63
340
0
  0
BLOCK_RECORD
  5
22892
330
1
100
AcDbSymbolTableRecord
100
AcDbBlockTableRecord
  2
*D64
340
0
  0
BLOCK_RECORD
  5
2289E
330
1
100
AcDbSymbolTableRecord
100
AcDbBlockTableRecord
  2
*D65
340
0
  0
BLOCK_RECORD
  5
228B3
330
1
100
AcDbSymbolTableRecord
100
AcDbBlockTableRecord
  2
*D66
340
0
  0
BLOCK_RECORD
  5
228BF
330
1
100
AcDbSymbolTableRecord
100
AcDbBlockTableRecord
  2
*D67
340
0
  0
BLOCK_RECORD
  5
228D3
330
1
100
AcDbSymbolTableRecord
100
AcDbBlockTableRecord
  2
*D68
340
0
  0
BLOCK_RECORD
  5
228DF
330
1
100
AcDbSymbolTableRecord
100
AcDbBlockTableRecord
  2
*D69
340
0
  0
BLOCK_RECORD
  5
228EB
330
1
100
AcDbSymbolTableRecord
100
AcDbBlockTableRecord
  2
*D70
340
0
  0
BLOCK_RECORD
  5
228F9
330
1
100
AcDbSymbolTableRecord
100
AcDbBlockTableRecord
  2
*D71
340
0
  0
ENDTAB
  0
ENDSEC
  0
SECTION
  2
BLOCKS
  0
BLOCK
  5
20
330
1F
100
AcDbEntity
  8
0
100
AcDbBlockBegin
  2
*Model_Space
 70
     0
 10
0.0
 20
0.0
 30
0.0
  3
*Model_Space
  1

  0
ENDBLK
  5
21
330
1F
100
AcDbEntity
  8
0
100
AcDbBlockEnd
  0
BLOCK
  5
D4
330
D2
100
AcDbEntity
 67
     1
  8
0
100
AcDbBlockBegin
  2
*Paper_Space
 70
     0
 10
0.0
 20
0.0
 30
0.0
  3
*Paper_Space
  1

  0
ENDBLK
  5
D5
330
D2
100
AcDbEntity
 67
     1
  8
0
100
AcDbBlockEnd
  0
BLOCK
  5
D8
330
D6
100
AcDbEntity
 67
     1
  8
0
100
AcDbBlockBegin
  2
*Paper_Space0
 70
     0
 10
0.0
 20
0.0
 30
0.0
  3
*Paper_Space0
  1

  0
ENDBLK
  5
D9
330
D6
100
AcDbEntity
 67
     1
  8
0
100
AcDbBlockEnd
  0
BLOCK
  5
87C
330
87B
100
AcDbEntity
  8
0
100
AcDbBlockBegin
  2
_Open30
 70
     0
 10
0.0
 20
0.0
 30
0.0
  3
_Open30
  1

  0
LINE
  5
87D
330
87B
100
AcDbEntity
  8
0
  6
ByBlock
 62
     0
370
    -2
100
AcDbLine
 10
-1.0
 20
0.26794919
 30
0.0
 11
0.0
 21
0.0
 31
0.0
  0
LINE
  5
87E
330
87B
100
AcDbEntity
  8
0
  6
ByBlock
 62
     0
370
    -2
100
AcDbLine
 10
0.0
 20
0.0
 30
0.0
 11
-1.0
 21
-0.26794919
 31
0.0
  0
LINE
  5
87F
330
87B
100
AcDbEntity
  8
0
  6
ByBlock
 62
     0
370
    -2
100
AcDbLine
 10
0.0
 20
0.0
 30
0.0
 11
-1.0
 21
0.0
 31
0.0
  0
ENDBLK
  5
880
330
87B
100
AcDbEntity
  8
0
100
AcDbBlockEnd
  0
BLOCK
  5
133A3
330
133A1
100
AcDbEntity
  8
0
100
AcDbBlockBegin
  2
GENAXEH
 70
     0
 10
0.0
 20
0.0
 30
0.0
  3
GENAXEH
  1

  0
LINE
  5
133A2
330
133A1
100
AcDbEntity
  8
0
100
AcDbLine
 10
-1.0
 20
0.0
 30
0.0
 11
1.0
 21
0.0
 31
0.0
  0
ENDBLK
  5
133A4
330
133A1
100
AcDbEntity
  8
0
100
AcDbBlockEnd
  0
BLOCK
  5
2284F
330
2284E
100
AcDbEntity
  8
0
100
AcDbBlockBegin
  2
*D59
 70
     1
 10
0.0
 20
0.0
 30
0.0
  3
*D59
  1

  0
LINE
  5
22CF1
330
2284E
100
AcDbEntity
  8
mark
  6
ByBlock
370
    -2
100
AcDbLine
 10
101.9467172692893
 20
407.4239778792707
 30
0.0
 11
101.9467172692893
 21
451.4261082417956
 31
0.0
  0
LINE
  5
22CF2
330
2284E
100
AcDbEntity
  8
mark
  6
ByBlock
370
    -2
100
AcDbLine
 10
441.9467172692893
 20
407.4239778792708
 30
0.0
 11
441.9467172692893
 21
451.4261082417956
 31
0.0
  0
LINE
  5
22CF3
330
2284E
100
AcDbEntity
  8
mark
  6
ByBlock
370
    -2
100
AcDbLine
 10
110.6967172692893
 20
448.0511082417956
 30
0.0
 11
433.1967172692893
 21
448.0511082417956
 31
0.0
  0
INSERT
  5
22CF4
330
2284E
100
AcDbEntity
  8
mark
370
    -2
100
AcDbBlockReference
  2
_Open30
 10
101.9467172692893
 20
448.0511082417956
 30
0.0
 41
8.75
 42
8.75
 43
8.75
 50
180.0
  0
INSERT
  5
22CF5
330
2284E
100
AcDbEntity
  8
mark
370
    -2
100
AcDbBlockReference
  2
_Open30
 10
441.9467172692893
 20
448.0511082417956
 30
0.0
 41
8.75
 42
8.75
 43
8.75
  0
MTEXT
  5
22CF6
330
2284E
100
AcDbEntity
  8
mark
 62
     3
100
AcDbMText
 10
271.9467172692894
 20
455.8011082417956
 30
0.0
 40
8.75
 41
0.0
 71
     5
 72
     1
  1
\A1;108x5=540
 73
     1
 44
1.0
1001
ACAD
1000
MTEXTBEGIN
1070
    73
1070
     1
1070
    44
1040
1.0
1070
    74
1070
     0
1000
MTEXTEND
  0
POINT
  5
22CF7
330
2284E
100
AcDbEntity
  8
Defpoints
 62
     0
100
AcDbPoint
 10
101.9467172692893
 20
404.0489778792707
 30
0.0
  0
POINT
  5
22CF8
330
2284E
100
AcDbEntity
  8
Defpoints
 62
     0
100
AcDbPoint
 10
441.9467172692893
 20
404.0489778792708
 30
0.0
  0
POINT
  5
22CF9
330
2284E
100
AcDbEntity
  8
Defpoints
 62
     0
100
AcDbPoint
 10
441.9467172692893
 20
448.0511082417956
 30
0.0
  0
ENDBLK
  5
22850
330
2284E
100
AcDbEntity
  8
0
100
AcDbBlockEnd
  0
BLOCK
  5
2285B
330
2285A
100
AcDbEntity
  8
0
100
AcDbBlockBegin
  2
*D60
 70
     1
 10
0.0
 20
0.0
 30
0.0
  3
*D60
  1

  0
LINE
  5
22D15
330
2285A
100
AcDbEntity
  8
mark
370
    -2
100
AcDbLine
 10
416.9467172692895
 20
209.6200859572999
 30
0.0
 11
416.9467172692895
 21
177.1203281033094
 31
0.0
  0
LINE
  5
22D16
330
2285A
100
AcDbEntity
  8
mark
370
    -2
100
AcDbLine
 10
116.9467172692893
 20
209.6200859572998
 30
0.0
 11
116.9467172692893
 21
177.1203281033094
 31
0.0
  0
LINE
  5
22D17
330
2285A
100
AcDbEntity
  8
mark
370
    -2
100
AcDbLine
 10
408.1967172692896
 20
180.4953281033094
 30
0.0
 11
125.6967172692893
 21
180.4953281033094
 31
0.0
  0
INSERT
  5
22D18
330
2285A
100
AcDbEntity
  8
mark
370
    -2
100
AcDbBlockReference
  2
_Open30
 10
416.9467172692895
 20
180.4953281033094
 30
0.0
 41
8.75
 42
8.75
 43
8.75
  0
INSERT
  5
22D19
330
2285A
100
AcDbEntity
  8
mark
370
    -2
100
AcDbBlockReference
  2
_Open30
 10
116.9467172692893
 20
180.4953281033094
 30
0.0
 41
8.75
 42
8.75
 43
8.75
 50
180.0
  0
MTEXT
  5
22D1A
330
2285A
100
AcDbEntity
  8
mark
 62
     3
100
AcDbMText
 10
266.9467172692895
 20
188.2453281033093
 30
0.0
 40
8.75
 41
0.0
 71
     5
 72
     1
  1
\A1;500
 73
     1
 44
1.0
1001
ACAD
1000
MTEXTBEGIN
1070
    73
1070
     1
1070
    44
1040
1.0
1070
    74
1070
     0
1000
MTEXTEND
  0
POINT
  5
22D1B
330
2285A
100
AcDbEntity
  8
Defpoints
 62
     0
100
AcDbPoint
 10
416.9467172692895
 20
212.9950859572999
 30
0.0
  0
POINT
  5
22D1C
330
2285A
100
AcDbEntity
  8
Defpoints
 62
     0
100
AcDbPoint
 10
116.9467172692893
 20
212.9950859572999
 30
0.0
  0
POINT
  5
22D1D
330
2285A
100
AcDbEntity
  8
Defpoints
 62
     0
100
AcDbPoint
 10
116.9467172692893
 20
180.4953281033094
 30
0.0
  0
ENDBLK
  5
2285C
330
2285A
100
AcDbEntity
  8
0
100
AcDbBlockEnd
  0
BLOCK
  5
22867
330
22866
100
AcDbEntity
  8
0
100
AcDbBlockBegin
  2
*D61
 70
     1
 10
0.0
 20
0.0
 30
0.0
  3
*D61
  1

  0
LINE
  5
22D30
330
22866
100
AcDbEntity
  8
mark
370
    -2
100
AcDbLine
 10
47.79412294341469
 20
450.951572205136
 30
0.0
 11
93.81498928564324
 21
404.9307058629156
 31
0.0
  0
LINE
  5
22D31
330
22866
100
AcDbEntity
  8
mark
370
    -2
100
AcDbLine
 10
110.0784452529353
 20
388.6672498956264
 30
0.0
 11
116.2656295883182
 21
382.4800655602446
 31
0.0
  0
MTEXT
  5
22D32
102
{ACAD_XDICTIONARY
360
22D9B
102
}
330
22866
100
AcDbEntity
  8
mark
 62
     3
100
AcDbMText
 10
73.19104150103274
 20
436.5148087559129
 30
0.0
 40
8.75
 41
0.0
 71
     5
 72
     1
  1
\A1;12-\U+22055.5
 11
0.7071067811866098
 21
-0.7071067811864853
 31
0.0
 73
     1
 44
1.0
1001
ACAD
1000
MTEXTBEGIN
1070
    73
1070
     1
1070
    44
1040
1.0
1070
    74
1070
     0
1000
MTEXTEND
  0
LINE
  5
22D33
330
22866
100
AcDbEntity
  8
mark
370
    -2
100
AcDbLine
 10
103.8912609175525
 20
394.8544342310081
 30
0.0
 11
100.002173621026
 21
398.7435215275338
 31
0.0
  0
INSERT
  5
22D34
330
22866
100
AcDbEntity
  8
mark
370
    -2
100
AcDbBlockReference
  2
_Open30
 10
103.8912609175525
 20
394.8544342310081
 30
0.0
 41
8.75
 42
8.75
 43
8.75
 50
135.000000000005
  0
INSERT
  5
22D35
330
22866
100
AcDbEntity
  8
mark
370
    -2
100
AcDbBlockReference
  2
_Open30
 10
100.002173621026
 20
398.7435215275338
 30
0.0
 41
8.75
 42
8.75
 43
8.75
 50
315.000000000005
  0
POINT
  5
22D36
330
22866
100
AcDbEntity
  8
Defpoints
 62
     0
100
AcDbPoint
 10
100.002173621026
 20
398.7435215275338
 30
0.0
  0
POINT
  5
22D37
330
22866
100
AcDbEntity
  8
Defpoints
 62
     0
100
AcDbPoint
 10
103.8912609175525
 20
394.8544342310081
 30
0.0
  0
ENDBLK
  5
22868
330
22866
100
AcDbEntity
  8
0
100
AcDbBlockEnd
  0
BLOCK
  5
22872
330
22871
100
AcDbEntity
  8
0
100
AcDbBlockBegin
  2
*D62
 70
     1
 10
0.0
 20
0.0
 30
0.0
  3
*D62
  1

  0
LINE
  5
22CE8
330
22871
100
AcDbEntity
  8
mark
  6
ByBlock
370
    -2
100
AcDbLine
 10
101.9467172692893
 20
407.4239778792707
 30
0.0
 11
101.9467172692893
 21
424.5570778911415
 31
0.0
  0
LINE
  5
22CE9
330
22871
100
AcDbEntity
  8
mark
  6
ByBlock
370
    -2
100
AcDbLine
 10
209.9467172692893
 20
407.4239778792708
 30
0.0
 11
209.9467172692893
 21
424.5570778911415
 31
0.0
  0
LINE
  5
22CEA
330
22871
100
AcDbEntity
  8
mark
  6
ByBlock
370
    -2
100
AcDbLine
 10
110.6967172692893
 20
421.1820778911414
 30
0.0
 11
201.1967172692894
 21
421.1820778911414
 31
0.0
  0
INSERT
  5
22CEB
330
22871
100
AcDbEntity
  8
mark
370
    -2
100
AcDbBlockReference
  2
_Open30
 10
101.9467172692893
 20
421.1820778911414
 30
0.0
 41
8.75
 42
8.75
 43
8.75
 50
180.0
  0
INSERT
  5
22CEC
330
22871
100
AcDbEntity
  8
mark
370
    -2
100
AcDbBlockReference
  2
_Open30
 10
209.9467172692893
 20
421.1820778911414
 30
0.0
 41
8.75
 42
8.75
 43
8.75
  0
MTEXT
  5
22CED
330
22871
100
AcDbEntity
  8
mark
 62
     3
100
AcDbMText
 10
155.9467172692893
 20
428.9320778911415
 30
0.0
 40
8.75
 41
0.0
 71
     5
 72
     1
  1
\A1;108
 73
     1
 44
1.0
1001
ACAD
1000
MTEXTBEGIN
1070
    73
1070
     1
1070
    44
1040
1.0
1070
    74
1070
     0
1000
MTEXTEND
  0
POINT
  5
22CEE
330
22871
100
AcDbEntity
  8
Defpoints
 62
     0
100
AcDbPoint
 10
101.9467172692893
 20
404.0489778792707
 30
0.0
  0
POINT
  5
22CEF
330
22871
100
AcDbEntity
  8
Defpoints
 62
     0
100
AcDbPoint
 10
209.9467172692893
 20
404.0489778792708
 30
0.0
  0
POINT
  5
22CF0
330
22871
100
AcDbEntity
  8
Defpoints
 62
     0
100
AcDbPoint
 10
209.9467172692893
 20
421.1820778911414
 30
0.0
  0
ENDBLK
  5
22873
330
22871
100
AcDbEntity
  8
0
100
AcDbBlockEnd
  0
BLOCK
  5
22887
330
22886
100
AcDbEntity
  8
0
100
AcDbBlockBegin
  2
*D63
 70
     1
 10
0.0
 20
0.0
 30
0.0
  3
*D63
  1

  0
LINE
  5
22CFA
330
22886
100
AcDbEntity
  8
mark
  6
ByBlock
370
    -2
100
AcDbLine
 10
91.32171726928936
 20
396.7989778792707
 30
0.0
 11
63.0722824501636
 21
396.7989778792707
 31
0.0
  0
LINE
  5
22CFB
330
22886
100
AcDbEntity
  8
mark
  6
ByBlock
370
    -2
100
AcDbLine
 10
91.32171726928936
 20
319.2989778792707
 30
0.0
 11
63.07228245016358
 21
319.2989778792707
 31
0.0
  0
LINE
  5
22CFC
330
22886
100
AcDbEntity
  8
mark
  6
ByBlock
370
    -2
100
AcDbLine
 10
66.44728245016359
 20
388.0489778792707
 30
0.0
 11
66.44728245016358
 21
328.0489778792707
 31
0.0
  0
INSERT
  5
22CFD
330
22886
100
AcDbEntity
  8
mark
370
    -2
100
AcDbBlockReference
  2
_Open30
 10
66.44728245016359
 20
396.7989778792707
 30
0.0
 41
8.75
 42
8.75
 43
8.75
 50
90.0
  0
INSERT
  5
22CFE
330
22886
100
AcDbEntity
  8
mark
370
    -2
100
AcDbBlockReference
  2
_Open30
 10
66.44728245016358
 20
319.2989778792707
 30
0.0
 41
8.75
 42
8.75
 43
8.75
 50
270.0
  0
MTEXT
  5
22CFF
330
22886
100
AcDbEntity
  8
mark
 62
     3
100
AcDbMText
 10
58.69728245016354
 20
358.0489778792708
 30
0.0
 40
8.75
 41
0.0
 71
     5
 72
     1
  1
\A1;77.5
 11
0.0000000000000001
 21
1.0
 31
0.0
 73
     1
 44
1.0
1001
ACAD
1000
MTEXTBEGIN
1070
    73
1070
     1
1070
    44
1040
1.0
1070
    74
1070
     0
1000
MTEXTEND
  0
POINT
  5
22D00
330
22886
100
AcDbEntity
  8
Defpoints
 62
     0
100
AcDbPoint
 10
94.69671726928936
 20
396.7989778792707
 30
0.0
  0
POINT
  5
22D01
330
22886
100
AcDbEntity
  8
Defpoints
 62
     0
100
AcDbPoint
 10
94.69671726928936
 20
319.2989778792707
 30
0.0
  0
POINT
  5
22D02
330
22886
100
AcDbEntity
  8
Defpoints
 62
     0
100
AcDbPoint
 10
66.44728245016358
 20
319.2989778792707
 30
0.0
  0
ENDBLK
  5
22888
330
22886
100
AcDbEntity
  8
0
100
AcDbBlockEnd
  0
BLOCK
  5
22893
330
22892
100
AcDbEntity
  8
0
100
AcDbBlockBegin
  2
*D64
 70
     1
 10
0.0
 20
0.0
 30
0.0
  3
*D64
  1

  0
LINE
  5
22D03
330
22892
100
AcDbEntity
  8
mark
370
    -2
100
AcDbLine
 10
91.94671726928936
 20
241.3700859572998
 30
0.0
 11
91.94671726928936
 21
262.52034373055
 31
0.0
  0
LINE
  5
22D04
330
22892
100
AcDbEntity
  8
mark
370
    -2
100
AcDbLine
 10
451.9467172692893
 20
241.3700859572998
 30
0.0
 11
451.9467172692893
 21
262.52034373055
 31
0.0
  0
LINE
  5
22D05
330
22892
100
AcDbEntity
  8
mark
370
    -2
100
AcDbLine
 10
100.6967172692893
 20
259.14534373055
 30
0.0
 11
443.1967172692893
 21
259.14534373055
 31
0.0
  0
INSERT
  5
22D06
330
22892
100
AcDbEntity
  8
mark
370
    -2
100
AcDbBlockReference
  2
_Open30
 10
91.94671726928936
 20
259.14534373055
 30
0.0
 41
8.75
 42
8.75
 43
8.75
 50
180.0
  0
INSERT
  5
22D07
330
22892
100
AcDbEntity
  8
mark
370
    -2
100
AcDbBlockReference
  2
_Open30
 10
451.9467172692893
 20
259.14534373055
 30
0.0
 41
8.75
 42
8.75
 43
8.75
  0
MTEXT
  5
22D08
330
22892
100
AcDbEntity
  8
mark
 62
     3
100
AcDbMText
 10
271.9467172692894
 20
266.89534373055
 30
0.0
 40
8.75
 41
0.0
 71
     5
 72
     1
  1
\A1;560
 73
     1
 44
1.0
1001
ACAD
1000
MTEXTBEGIN
1070
    73
1070
     1
1070
    44
1040
1.0
1070
    74
1070
     0
1000
MTEXTEND
  0
POINT
  5
22D09
330
22892
100
AcDbEntity
  8
Defpoints
 62
     0
100
AcDbPoint
 10
91.94671726928936
 20
237.9950859572999
 30
0.0
  0
POINT
  5
22D0A
330
22892
100
AcDbEntity
  8
Defpoints
 62
     0
100
AcDbPoint
 10
451.9467172692893
 20
237.9950859572999
 30
0.0
  0
POINT
  5
22D0B
330
22892
100
AcDbEntity
  8
Defpoints
 62
     0
100
AcDbPoint
 10
451.9467172692893
 20
259.14534373055
 30
0.0
  0
ENDBLK
  5
22894
330
22892
100
AcDbEntity
  8
0
100
AcDbBlockEnd
  0
BLOCK
  5
2289F
330
2289E
100
AcDbEntity
  8
0
100
AcDbBlockBegin
  2
*D65
 70
     1
 10
0.0
 20
0.0
 30
0.0
  3
*D65
  1

  0
LINE
  5
22D0C
330
2289E
100
AcDbEntity
  8
mark
370
    -2
100
AcDbLine
 10
116.9467172692893
 20
209.6200859572998
 30
0.0
 11
116.9467172692893
 21
177.1203281033093
 31
0.0
  0
LINE
  5
22D0D
330
2289E
100
AcDbEntity
  8
mark
370
    -2
100
AcDbLine
 10
91.94671726928936
 20
232.6200859572997
 30
0.0
 11
91.94671726928936
 21
177.1203281033093
 31
0.0
  0
LINE
  5
22D0E
330
2289E
100
AcDbEntity
  8
mark
370
    -2
100
AcDbLine
 10
108.1967172692893
 20
180.4953281033093
 30
0.0
 11
100.6967172692893
 21
180.4953281033093
 31
0.0
  0
INSERT
  5
22D0F
330
2289E
100
AcDbEntity
  8
mark
370
    -2
100
AcDbBlockReference
  2
_Open30
 10
116.9467172692893
 20
180.4953281033093
 30
0.0
 41
8.75
 42
8.75
 43
8.75
  0
INSERT
  5
22D10
330
2289E
100
AcDbEntity
  8
mark
370
    -2
100
AcDbBlockReference
  2
_Open30
 10
91.94671726928936
 20
180.4953281033093
 30
0.0
 41
8.75
 42
8.75
 43
8.75
 50
180.0
  0
MTEXT
  5
22D11
330
2289E
100
AcDbEntity
  8
mark
 62
     3
100
AcDbMText
 10
104.4467172692893
 20
188.2453281033093
 30
0.0
 40
8.75
 41
0.0
 71
     5
 72
     1
  1
\A1;20
 73
     1
 44
1.0
1001
ACAD
1000
MTEXTBEGIN
1070
    73
1070
     1
1070
    44
1040
1.0
1070
    74
1070
     0
1000
MTEXTEND
  0
POINT
  5
22D12
330
2289E
100
AcDbEntity
  8
Defpoints
 62
     0
100
AcDbPoint
 10
116.9467172692893
 20
212.9950859572999
 30
0.0
  0
POINT
  5
22D13
330
2289E
100
AcDbEntity
  8
Defpoints
 62
     0
100
AcDbPoint
 10
91.94671726928936
 20
235.9950859572997
 30
0.0
  0
POINT
  5
22D14
330
2289E
100
AcDbEntity
  8
Defpoints
 62
     0
100
AcDbPoint
 10
91.94671726928936
 20
180.4953281033093
 30
0.0
  0
ENDBLK
  5
228A0
330
2289E
100
AcDbEntity
  8
0
100
AcDbBlockEnd
  0
BLOCK
  5
228B4
330
228B3
100
AcDbEntity
  8
0
100
AcDbBlockBegin
  2
*D66
 70
     1
 10
0.0
 20
0.0
 30
0.0
  3
*D66
  1

  0
LINE
  5
22D1E
330
228B3
100
AcDbEntity
  8
mark
370
    -2
100
AcDbLine
 10
416.9467172692895
 20
209.6200859572998
 30
0.0
 11
416.9467172692895
 21
177.1203281033092
 31
0.0
  0
LINE
  5
22D1F
330
228B3
100
AcDbEntity
  8
mark
370
    -2
100
AcDbLine
 10
451.9467172692893
 20
232.6200859572996
 30
0.0
 11
451.9467172692893
 21
177.1203281033092
 31
0.0
  0
LINE
  5
22D20
330
228B3
100
AcDbEntity
  8
mark
370
    -2
100
AcDbLine
 10
425.6967172692895
 20
180.4953281033092
 30
0.0
 11
443.1967172692893
 21
180.4953281033092
 31
0.0
  0
INSERT
  5
22D21
330
228B3
100
AcDbEntity
  8
mark
370
    -2
100
AcDbBlockReference
  2
_Open30
 10
416.9467172692895
 20
180.4953281033092
 30
0.0
 41
8.75
 42
8.75
 43
8.75
 50
180.0
  0
INSERT
  5
22D22
330
228B3
100
AcDbEntity
  8
mark
370
    -2
100
AcDbBlockReference
  2
_Open30
 10
451.9467172692893
 20
180.4953281033092
 30
0.0
 41
8.75
 42
8.75
 43
8.75
  0
MTEXT
  5
22D23
330
228B3
100
AcDbEntity
  8
mark
 62
     3
100
AcDbMText
 10
434.4467172692894
 20
188.2453281033092
 30
0.0
 40
8.75
 41
0.0
 71
     5
 72
     1
  1
\A1;40
 73
     1
 44
1.0
1001
ACAD
1000
MTEXTBEGIN
1070
    73
1070
     1
1070
    44
1040
1.0
1070
    74
1070
     0
1000
MTEXTEND
  0
POINT
  5
22D24
330
228B3
100
AcDbEntity
  8
Defpoints
 62
     0
100
AcDbPoint
 10
416.9467172692895
 20
212.9950859572999
 30
0.0
  0
POINT
  5
22D25
330
228B3
100
AcDbEntity
  8
Defpoints
 62
     0
100
AcDbPoint
 10
451.9467172692893
 20
235.9950859572996
 30
0.0
  0
POINT
  5
22D26
330
228B3
100
AcDbEntity
  8
Defpoints
 62
     0
100
AcDbPoint
 10
451.9467172692893
 20
180.4953281033092
 30
0.0
  0
ENDBLK
  5
228B5
330
228B3
100
AcDbEntity
  8
0
100
AcDbBlockEnd
  0
BLOCK
  5
228C0
330
228BF
100
AcDbEntity
  8
0
100
AcDbBlockBegin
  2
*D67
 70
     1
 10
0.0
 20
0.0
 30
0.0
  3
*D67
  1

  0
LINE
  5
22D27
330
228BF
100
AcDbEntity
  8
mark
370
    -2
100
AcDbLine
 10
115.0717172692893
 20
211.4950859572998
 30
0.0
 11
63.07228245016362
 21
211.4950859572999
 31
0.0
  0
LINE
  5
22D28
330
228BF
100
AcDbEntity
  8
mark
370
    -2
100
AcDbLine
 10
89.57171726928937
 20
238.9950859572998
 30
0.0
 11
63.07228245016362
 21
238.9950859572999
 31
0.0
  0
LINE
  5
22D29
330
228BF
100
AcDbEntity
  8
mark
370
    -2
100
AcDbLine
 10
66.44728245016361
 20
220.2450859572998
 30
0.0
 11
66.44728245016363
 21
230.2450859572998
 31
0.0
  0
INSERT
  5
22D2A
330
228BF
100
AcDbEntity
  8
mark
370
    -2
100
AcDbBlockReference
  2
_Open30
 10
66.44728245016361
 20
211.4950859572998
 30
0.0
 41
8.75
 42
8.75
 43
8.75
 50
270.0
  0
INSERT
  5
22D2B
330
228BF
100
AcDbEntity
  8
mark
370
    -2
100
AcDbBlockReference
  2
_Open30
 10
66.44728245016363
 20
238.9950859572998
 30
0.0
 41
8.75
 42
8.75
 43
8.75
 50
90.0
  0
MTEXT
  5
22D2C
330
228BF
100
AcDbEntity
  8
mark
 62
     3
100
AcDbMText
 10
58.69728245016358
 20
225.2450859572999
 30
0.0
 40
8.75
 41
0.0
 71
     5
 72
     1
  1
\A1;27.5
 11
0.0000000000000001
 21
1.0
 31
0.0
 73
     1
 44
1.0
1001
ACAD
1000
MTEXTBEGIN
1070
    73
1070
     1
1070
    44
1040
1.0
1070
    74
1070
     0
1000
MTEXTEND
  0
POINT
  5
22D2D
330
228BF
100
AcDbEntity
  8
Defpoints
 62
     0
100
AcDbPoint
 10
118.4467172692893
 20
211.4950859572998
 30
0.0
  0
POINT
  5
22D2E
330
228BF
100
AcDbEntity
  8
Defpoints
 62
     0
100
AcDbPoint
 10
92.94671726928937
 20
238.9950859572998
 30
0.0
  0
POINT
  5
22D2F
330
228BF
100
AcDbEntity
  8
Defpoints
 62
     0
100
AcDbPoint
 10
66.44728245016363
 20
238.9950859572998
 30
0.0
  0
ENDBLK
  5
228C1
330
228BF
100
AcDbEntity
  8
0
100
AcDbBlockEnd
  0
BLOCK
  5
228D4
330
228D3
100
AcDbEntity
  8
0
100
AcDbBlockBegin
  2
*D68
 70
     1
 10
0.0
 20
0.0
 30
0.0
  3
*D68
  1

  0
LINE
  5
22D38
330
228D3
100
AcDbEntity
  8
mark
370
    -2
100
AcDbLine
 10
554.0507093346548
 20
241.3700859572998
 30
0.0
 11
554.0507093346548
 21
262.5203437305499
 31
0.0
  0
LINE
  5
22D39
330
228D3
100
AcDbEntity
  8
mark
370
    -2
100
AcDbLine
 10
644.0507093346548
 20
241.3700859572998
 30
0.0
 11
644.0507093346548
 21
262.5203437305499
 31
0.0
  0
LINE
  5
22D3A
330
228D3
100
AcDbEntity
  8
mark
370
    -2
100
AcDbLine
 10
562.8007093346548
 20
259.1453437305499
 30
0.0
 11
635.3007093346548
 21
259.1453437305499
 31
0.0
  0
INSERT
  5
22D3B
330
228D3
100
AcDbEntity
  8
mark
370
    -2
100
AcDbBlockReference
  2
_Open30
 10
554.0507093346548
 20
259.1453437305499
 30
0.0
 41
8.75
 42
8.75
 43
8.75
 50
180.0
  0
INSERT
  5
22D3C
330
228D3
100
AcDbEntity
  8
mark
370
    -2
100
AcDbBlockReference
  2
_Open30
 10
644.0507093346548
 20
259.1453437305499
 30
0.0
 41
8.75
 42
8.75
 43
8.75
  0
MTEXT
  5
22D3D
330
228D3
100
AcDbEntity
  8
mark
 62
     3
100
AcDbMText
 10
599.0507093346548
 20
266.8953437305499
 30
0.0
 40
8.75
 41
0.0
 71
     5
 72
     1
  1
\A1;90
 73
     1
 44
1.0
1001
ACAD
1000
MTEXTBEGIN
1070
    73
1070
     1
1070
    44
1040
1.0
1070
    74
1070
     0
1000
MTEXTEND
  0
POINT
  5
22D3E
330
228D3
100
AcDbEntity
  8
Defpoints
 62
     0
100
AcDbPoint
 10
554.0507093346548
 20
237.9950859572998
 30
0.0
  0
POINT
  5
22D3F
330
228D3
100
AcDbEntity
  8
Defpoints
 62
     0
100
AcDbPoint
 10
644.0507093346548
 20
237.9950859572998
 30
0.0
  0
POINT
  5
22D40
330
228D3
100
AcDbEntity
  8
Defpoints
 62
     0
100
AcDbPoint
 10
644.0507093346548
 20
259.1453437305499
 30
0.0
  0
ENDBLK
  5
228D5
330
228D3
100
AcDbEntity
  8
0
100
AcDbBlockEnd
  0
BLOCK
  5
228E0
330
228DF
100
AcDbEntity
  8
0
100
AcDbBlockBegin
  2
*D69
 70
     1
 10
0.0
 20
0.0
 30
0.0
  3
*D69
  1

  0
LINE
  5
22D41
330
228DF
100
AcDbEntity
  8
mark
370
    -2
100
AcDbLine
 10
631.5507093346548
 20
209.1200859572998
 30
0.0
 11
631.5507093346548
 21
180.4953281033092
 31
0.0
  0
LINE
  5
22D42
330
228DF
100
AcDbEntity
  8
mark
370
    -2
100
AcDbLine
 10
566.5507093346548
 20
209.1200859572998
 30
0.0
 11
566.5507093346548
 21
180.4953281033092
 31
0.0
  0
LINE
  5
22D43
330
228DF
100
AcDbEntity
  8
mark
370
    -2
100
AcDbLine
 10
622.8007093346548
 20
183.8703281033092
 30
0.0
 11
575.3007093346548
 21
183.8703281033092
 31
0.0
  0
INSERT
  5
22D44
330
228DF
100
AcDbEntity
  8
mark
370
    -2
100
AcDbBlockReference
  2
_Open30
 10
631.5507093346548
 20
183.8703281033092
 30
0.0
 41
8.75
 42
8.75
 43
8.75
  0
INSERT
  5
22D45
330
228DF
100
AcDbEntity
  8
mark
370
    -2
100
AcDbBlockReference
  2
_Open30
 10
566.5507093346548
 20
183.8703281033092
 30
0.0
 41
8.75
 42
8.75
 43
8.75
 50
180.0
  0
MTEXT
  5
22D46
330
228DF
100
AcDbEntity
  8
mark
 62
     3
100
AcDbMText
 10
599.0507093346548
 20
191.6203281033092
 30
0.0
 40
8.75
 41
0.0
 71
     5
 72
     1
  1
\A1;65
 73
     1
 44
1.0
1001
ACAD
1000
MTEXTBEGIN
1070
    73
1070
     1
1070
    44
1040
1.0
1070
    74
1070
     0
1000
MTEXTEND
  0
POINT
  5
22D47
330
228DF
100
AcDbEntity
  8
Defpoints
 62
     0
100
AcDbPoint
 10
631.5507093346548
 20
212.4950859572998
 30
0.0
  0
POINT
  5
22D48
330
228DF
100
AcDbEntity
  8
Defpoints
 62
     0
100
AcDbPoint
 10
566.5507093346548
 20
212.4950859572998
 30
0.0
  0
POINT
  5
22D49
330
228DF
100
AcDbEntity
  8
Defpoints
 62
     0
100
AcDbPoint
 10
566.5507093346548
 20
183.8703281033092
 30
0.0
  0
ENDBLK
  5
228E1
330
228DF
100
AcDbEntity
  8
0
100
AcDbBlockEnd
  0
BLOCK
  5
228EC
330
228EB
100
AcDbEntity
  8
0
100
AcDbBlockBegin
  2
*D70
 70
     1
 10
0.0
 20
0.0
 30
0.0
  3
*D70
  1

  0
LINE
  5
22D4A
330
228EB
100
AcDbEntity
  8
mark
370
    -2
100
AcDbLine
 10
550.6757093346548
 20
235.9950859572996
 30
0.0
 11
503.9554352475063
 21
235.9950859572996
 31
0.0
  0
LINE
  5
22D4B
330
228EB
100
AcDbEntity
  8
mark
370
    -2
100
AcDbLine
 10
551.6757093346548
 20
238.9950859572998
 30
0.0
 11
503.9554352475063
 21
238.9950859572998
 31
0.0
  0
LINE
  5
22D4C
330
228EB
100
AcDbEntity
  8
mark
370
    -2
100
AcDbLine
 10
507.3304352475063
 20
227.2450859572996
 30
0.0
 11
507.3304352475063
 21
218.4950859572996
 31
0.0
  0
LINE
  5
22D4D
330
228EB
100
AcDbEntity
  8
mark
370
    -2
100
AcDbLine
 10
507.3304352475063
 20
247.7450859572998
 30
0.0
 11
507.3304352475063
 21
269.0784192906331
 31
0.0
  0
LINE
  5
22D4E
330
228EB
100
AcDbEntity
  8
mark
370
    -2
100
AcDbLine
 10
507.3304352475063
 20
235.9950859572996
 30
0.0
 11
507.3304352475063
 21
238.9950859572998
 31
0.0
  0
INSERT
  5
22D4F
330
228EB
100
AcDbEntity
  8
mark
370
    -2
100
AcDbBlockReference
  2
_Open30
 10
507.3304352475063
 20
235.9950859572996
 30
0.0
 41
8.75
 42
8.75
 43
8.75
 50
90.0
  0
INSERT
  5
22D50
330
228EB
100
AcDbEntity
  8
mark
370
    -2
100
AcDbBlockReference
  2
_Open30
 10
507.3304352475063
 20
238.9950859572998
 30
0.0
 41
8.75
 42
8.75
 43
8.75
 50
270.0
  0
MTEXT
  5
22D51
330
228EB
100
AcDbEntity
  8
mark
 62
     3
100
AcDbMText
 10
499.5804352475063
 20
262.7867526239665
 30
0.0
 40
8.75
 41
0.0
 71
     5
 72
     1
  1
\A1;3
 11
0.0000000000000001
 21
1.0
 31
0.0
 73
     1
 44
1.0
1001
ACAD
1000
MTEXTBEGIN
1070
    73
1070
     1
1070
    44
1040
1.0
1070
    74
1070
     0
1000
MTEXTEND
  0
POINT
  5
22D52
330
228EB
100
AcDbEntity
  8
Defpoints
 62
     0
100
AcDbPoint
 10
554.0507093346548
 20
235.9950859572996
 30
0.0
  0
POINT
  5
22D53
330
228EB
100
AcDbEntity
  8
Defpoints
 62
     0
100
AcDbPoint
 10
555.0507093346547
 20
238.9950859572998
 30
0.0
  0
POINT
  5
22D54
330
228EB
100
AcDbEntity
  8
Defpoints
 62
     0
100
AcDbPoint
 10
507.3304352475063
 20
238.9950859572998
 30
0.0
  0
ENDBLK
  5
228ED
330
228EB
100
AcDbEntity
  8
0
100
AcDbBlockEnd
  0
BLOCK
  5
228FA
330
228F9
100
AcDbEntity
  8
0
100
AcDbBlockBegin
  2
*D71
 70
     1
 10
0.0
 20
0.0
 30
0.0
  3
*D71
  1

  0
LINE
  5
22D55
330
228F9
100
AcDbEntity
  8
mark
370
    -2
100
AcDbLine
 10
550.6757093346548
 20
235.9950859572996
 30
0.0
 11
534.8217794900222
 21
235.9950859572996
 31
0.0
  0
LINE
  5
22D56
330
228F9
100
AcDbEntity
  8
mark
370
    -2
100
AcDbLine
 10
552.1757093346548
 20
234.4950859572999
 30
0.0
 11
534.8217794900222
 21
234.4950859572999
 31
0.0
  0
LINE
  5
22D57
330
228F9
100
AcDbEntity
  8
mark
370
    -2
100
AcDbLine
 10
538.1967794900222
 20
244.7450859572996
 30
0.0
 11
538.1967794900222
 21
253.4950859572996
 31
0.0
  0
LINE
  5
22D58
330
228F9
100
AcDbEntity
  8
mark
370
    -2
100
AcDbLine
 10
538.1967794900222
 20
225.7450859572999
 30
0.0
 11
538.1967794900222
 21
124.4950859572999
 31
0.0
  0
LINE
  5
22D59
330
228F9
100
AcDbEntity
  8
mark
370
    -2
100
AcDbLine
 10
538.1967794900222
 20
235.9950859572996
 30
0.0
 11
538.1967794900222
 21
234.4950859572999
 31
0.0
  0
INSERT
  5
22D5A
330
228F9
100
AcDbEntity
  8
mark
370
    -2
100
AcDbBlockReference
  2
_Open30
 10
538.1967794900222
 20
235.9950859572996
 30
0.0
 41
8.75
 42
8.75
 43
8.75
 50
270.0
  0
INSERT
  5
22D5B
330
228F9
100
AcDbEntity
  8
mark
370
    -2
100
AcDbBlockReference
  2
_Open30
 10
538.1967794900222
 20
234.4950859572999
 30
0.0
 41
8.75
 42
8.75
 43
8.75
 50
90.0
  0
MTEXT
  5
22D5C
102
{ACAD_XDICTIONARY
360
22D9D
102
}
330
228F9
100
AcDbEntity
  8
mark
 62
     3
100
AcDbMText
 10
530.4467794900221
 20
170.7450859573
 30
0.0
 40
8.75
 41
0.0
 71
     5
 72
     1
  1
\A1;\M+19668\M+19085\M+18370\M+18362\M+1834C\M+183931.5t
 11
0.0000000000000001
 21
1.0
 31
0.0
 73
     1
 44
1.0
1001
ACAD
1000
MTEXTBEGIN
1070
    73
1070
     1
1070
    44
1040
1.0
1070
    74
1070
     0
1000
MTEXTEND
  0
POINT
  5
22D5D
330
228F9
100
AcDbEntity
  8
Defpoints
 62
     0
100
AcDbPoint
 10
554.0507093346548
 20
235.9950859572996
 30
0.0
  0
POINT
  5
22D5E
330
228F9
100
AcDbEntity
  8
Defpoints
 62
     0
100
AcDbPoint
 10
555.5507093346547
 20
234.4950859572999
 30
0.0
  0
POINT
  5
22D5F
330
228F9
100
AcDbEntity
  8
Defpoints
 62
     0
100
AcDbPoint
 10
538.1967794900222
 20
234.4950859572999
 30
0.0
  0
ENDBLK
  5
228FB
330
228F9
100
AcDbEntity
  8
0
100
AcDbBlockEnd
  0
ENDSEC
  0
SECTION
  2
ENTITIES
  0
MTEXT
  5
1AA3A
330
1F
100
AcDbEntity
  8
mark
 62
     3
100
AcDbMText
 10
481.9335804260902
 20
244.111459000162
 30
0.0
 40
5.0
 41
0.0
 71
     1
 72
     1
  1
\A1;
 73
     1
 44
1.0
1001
ACAD
1000
MTEXTBEGIN
1070
    73
1070
     1
1070
    44
1040
1.0
1070
    74
1070
     0
1000
MTEXTEND
  0
MTEXT
  5
226C4
102
{ACAD_XDICTIONARY
360
22D7B
102
}
330
1F
100
AcDbEntity
  8
0
100
AcDbMText
 10
264.1902529749348
 20
43.39955833667167
 30
0.0
 40
12.5
 41
0.0
 71
     1
 72
     5
  1
{\Ftxt,bigfont|c128;\M+197D1\Ftxt,bigfont|c136; \Ftxt,bigfont|c128;\M+19546\Ftxt,bigfont|c136; \Ftxt,bigfont|c128;\M+188AE}
  7
JL
 73
     1
 44
1.0
1001
ACAD
1000
MTEXTBEGIN
1070
    73
1070
     1
1070
    44
1040
1.0
1070
    74
1070
     0
1000
MTEXTEND
  0
MTEXT
  5
226C5
330
1F
100
AcDbEntity
  8
0
100
AcDbMText
 10
440.336896532217
 20
67.54860771747485
 30
0.0
 40
12.5
 41
0.0
 71
     1
 72
     5
  1
{\Ftxt,bigfont|c128;NOT/S}
  7
JL
 73
     1
 44
1.0
1001
ACAD
1000
MTEXTBEGIN
1070
    73
1070
     1
1070
    44
1040
1.0
1070
    74
1070
     0
1000
MTEXTEND
  0
MTEXT
  5
226C6
330
1F
100
AcDbEntity
  8
0
100
AcDbMText
 10
557.1371772136447
 20
18.23173646191227
 30
0.0
 40
12.5
 41
0.0
 71
     1
 72
     5
  1
{\Ftxt,bigfont|c136;\W0.5;ND835001}
 73
     1
 44
1.0
1001
ACAD
1000
MTEXTBEGIN
1070
    73
1070
     1
1070
    44
1040
1.0
1070
    74
1070
     0
1000
MTEXTEND
  0
MTEXT
  5
226C7
102
{ACAD_XDICTIONARY
360
22D7D
102
}
330
1F
100
AcDbEntity
  8
0
100
AcDbMText
 10
247.418553131592
 20
21.40771221008094
 30
0.0
 40
17.5
 41
0.0
 71
     1
 72
     5
  1
{\Ftxt,bigfont|c128;\M+193FA\M+18B40\M+18A94\M+18EAE\M+189EF\M+18ED0}
  7
LKK
 73
     1
 44
1.0
1001
ACAD
1000
MTEXTBEGIN
1070
    73
1070
     1
1070
    44
1040
1.0
1070
    74
1070
     0
1000
MTEXTEND
  0
LINE
  5
226C8
330
1F
100
AcDbEntity
  8
0
 48
5.0
100
AcDbLine
 39
9.595959595959598
 10
347.1397992837355
 20
65.45919136996494
 30
0.0
 11
359.9307425411191
 21
68.65692718431074
 31
0.0
  0
MTEXT
  5
226C9
102
{ACAD_XDICTIONARY
360
22D7F
102
}
330
1F
100
AcDbEntity
  8
0
100
AcDbMText
 10
229.0439538730256
 20
43.58894663259984
 30
0.0
 40
12.5
 41
0.0
 71
     1
 72
     5
  1
\Ftxt.shx,bigfont.shx|c128;\M+190BB \M+1907D
  7
JL
 73
     1
 44
1.0
1001
ACAD
1000
MTEXTBEGIN
1070
    73
1070
     1
1070
    44
1040
1.0
1070
    74
1070
     0
1000
MTEXTEND
  0
MTEXT
  5
226CA
102
{ACAD_XDICTIONARY
360
22D81
102
}
330
1F
100
AcDbEntity
  8
0
100
AcDbMText
 10
230.0311559169372
 20
67.47848564877776
 30
0.0
 40
12.5
 41
0.0
 71
     1
 72
     5
  1
\Ftxt.shx,bigfont.shx|c128;\M+193FA \M+19574
  7
JL
 73
     1
 44
1.0
1001
ACAD
1000
MTEXTBEGIN
1070
    73
1070
     1
1070
    44
1040
1.0
1070
    74
1070
     0
1000
MTEXTEND
  0
MTEXT
  5
226CB
102
{ACAD_XDICTIONARY
360
22D83
102
}
330
1F
100
AcDbEntity
  8
0
100
AcDbMText
 10
317.2640565101269
 20
44.33464585902981
 30
0.0
 40
12.5
 41
0.0
 71
     1
 72
     5
  1
\Ftxt.shx,bigfont.shx|c128;\M+18C9F \M+1907D
  7
JL
 73
     1
 44
1.0
1001
ACAD
1000
MTEXTBEGIN
1070
    73
1070
     1
1070
    44
1040
1.0
1070
    74
1070
     0
1000
MTEXTEND
  0
CIRCLE
  5
226CC
330
1F
100
AcDbEntity
  8
0
100
AcDbCircle
 10
326.3545164904883
 20
62.26145555561885
 30
0.0
 40
3.197735814345845
  0
LINE
  5
226CD
330
1F
100
AcDbEntity
  8
0
100
AcDbLine
 10
318.3620446460882
 20
62.26145555561885
 30
0.0
 11
334.8243706244043
 21
62.26145555561913
 31
0.0
  0
LINE
  5
226CE
330
1F
100
AcDbEntity
  8
0
100
AcDbLine
 10
326.3545164904883
 20
54.28859415287852
 30
0.0
 11
326.3545164904883
 21
69.72781850530444
 31
0.0
  0
CIRCLE
  5
226CF
330
1F
100
AcDbEntity
  8
0
100
AcDbCircle
 10
326.3545164904883
 20
62.26145555561885
 30
0.0
 40
6.395471628691691
  0
LINE
  5
226D0
330
1F
100
AcDbEntity
  8
0
100
AcDbLine
 10
359.9307425411191
 20
55.86598392692756
 30
0.0
 11
359.9307425411191
 21
68.65692718431074
 31
0.0
  0
LINE
  5
226D1
330
1F
100
AcDbEntity
  8
0
100
AcDbLine
 10
347.1397992837355
 20
59.06371974127335
 30
0.0
 11
347.1397992837355
 21
65.45919136996494
 31
0.0
  0
LINE
  5
226D2
330
1F
100
AcDbEntity
  8
0
100
AcDbLine
 10
345.2992886069219
 20
62.26145555561913
 30
0.0
 11
361.0790534745285
 21
62.26145555561913
 31
0.0
  0
LINE
  5
226D3
330
1F
100
AcDbEntity
  8
0
100
AcDbLine
 10
347.1397992837355
 20
59.06371974127335
 30
0.0
 11
359.9307425411191
 21
55.86598392692756
 31
0.0
  0
MTEXT
  5
226D4
102
{ACAD_XDICTIONARY
360
22D85
102
}
330
1F
100
AcDbEntity
  8
0
100
AcDbMText
 10
494.9544669012063
 20
70.49467555732718
 30
0.0
 40
12.5
 41
0.0
 71
     1
 72
     5
  1
\Ftxt.shx,bigfont.shx|c128;\M+19569  \M+196BC
  7
JL
 73
     1
 44
1.0
1001
ACAD
1000
MTEXTBEGIN
1070
    73
1070
     1
1070
    44
1040
1.0
1070
    74
1070
     0
1000
MTEXTEND
  0
MTEXT
  5
226D5
102
{ACAD_XDICTIONARY
360
22D87
102
}
330
1F
100
AcDbEntity
  8
0
100
AcDbMText
 10
404.1042661762692
 20
44.33464585902981
 30
0.0
 40
12.5
 41
0.0
 71
     1
 72
     5
  1
\Ftxt.shx,bigfont.shx|c128;\M+18FB3 \M+19446
  7
JL
 73
     1
 44
1.0
1001
ACAD
1000
MTEXTBEGIN
1070
    73
1070
     1
1070
    44
1040
1.0
1070
    74
1070
     0
1000
MTEXTEND
  0
MTEXT
  5
226D6
102
{ACAD_XDICTIONARY
360
22D89
102
}
330
1F
100
AcDbEntity
  8
0
100
AcDbMText
 10
404.0581001807656
 20
67.82914907501626
 30
0.0
 40
12.5
 41
0.0
 71
     1
 72
     5
  1
\Ftxt.shx,bigfont.shx|c128;\M+18EDA \M+19378
  7
JL
 73
     1
 44
1.0
1001
ACAD
1000
MTEXTBEGIN
1070
    73
1070
     1
1070
    44
1040
1.0
1070
    74
1070
     0
1000
MTEXTEND
  0
MTEXT
  5
226D7
102
{ACAD_XDICTIONARY
360
22D8B
102
}
330
1F
100
AcDbEntity
  8
0
100
AcDbMText
 10
495.0077372410794
 20
18.3465487268352
 30
0.0
 40
12.5
 41
0.0
 71
     1
 72
     5
  1
\Ftxt.shx,bigfont.shx|c128;\M+1907D  \M+196CA  \M+194D4  \M+18D86
  7
JL
 73
     1
 44
1.0
1001
ACAD
1000
MTEXTBEGIN
1070
    73
1070
     1
1070
    44
1040
1.0
1070
    74
1070
     0
1000
MTEXTEND
  0
MTEXT
  5
226D8
102
{ACAD_XDICTIONARY
360
22D8D
102
}
330
1F
100
AcDbEntity
  8
0
100
AcDbMText
 10
608.5277231976547
 20
69.96404175063815
 30
0.0
 40
12.5
 41
0.0
 71
     1
 72
     5
  1
\Ftxt.shx,bigfont.shx|c128;\M+18C5E  \M+194D4
  7
JL
 73
     1
 44
1.0
1001
ACAD
1000
MTEXTBEGIN
1070
    73
1070
     1
1070
    44
1040
1.0
1070
    74
1070
     0
1000
MTEXTEND
  0
LWPOLYLINE
  5
226D9
330
1F
100
AcDbEntity
  8
frame
100
AcDbPolyline
 90
        4
 70
     1
 43
0.0
 10
700.0000000000004
 20
-0.0000000000001895
 10
700.0000000000004
 20
474.9999999999999
 10
0.0
 20
475.0
 10
0.0
 20
0.0
  0
LINE
  5
226DA
330
1F
100
AcDbEntity
  8
frame
100
AcDbLine
 10
225.0000000000002
 20
24.99999999999982
 30
0.0
 11
700.0000000000004
 21
24.99999999999982
 31
0.0
  0
LINE
  5
226DB
330
1F
100
AcDbEntity
  8
frame
100
AcDbLine
 10
225.0000000000002
 20
49.99999999999982
 30
0.0
 11
487.5
 21
49.99999999999982
 31
0.0
  0
LINE
  5
226DC
330
1F
100
AcDbEntity
  8
frame
100
AcDbLine
 10
225.0000000000002
 20
75.0
 30
0.0
 11
700.0000000000004
 21
75.0
 31
0.0
  0
LINE
  5
226DD
330
1F
100
AcDbEntity
  8
frame
100
AcDbLine
 10
625.0000000000002
 20
-0.0000000000001895
 30
0.0
 11
625.0000000000002
 21
24.99999999999982
 31
0.0
  0
LINE
  5
226DE
330
1F
100
AcDbEntity
  8
frame
100
AcDbLine
 10
600.0000000000002
 20
24.99999999999982
 30
0.0
 11
600.0000000000002
 21
75.0
 31
0.0
  0
LINE
  5
226DF
330
1F
100
AcDbEntity
  8
frame
100
AcDbLine
 10
487.5
 20
75.0
 30
0.0
 11
487.5
 21
-0.0000000000001895
 31
0.0
  0
LINE
  5
226E0
330
1F
100
AcDbEntity
  8
frame
100
AcDbLine
 10
250.0000000000002
 20
75.0
 30
0.0
 11
250.0000000000002
 21
24.99999999999982
 31
0.0
  0
LINE
  5
226E1
330
1F
100
AcDbEntity
  8
frame
100
AcDbLine
 10
312.5000000000002
 20
75.0
 30
0.0
 11
312.5000000000002
 21
24.99999999999982
 31
0.0
  0
LINE
  5
226E2
330
1F
100
AcDbEntity
  8
frame
100
AcDbLine
 10
337.5
 20
49.99999999999982
 30
0.0
 11
337.5000000000002
 21
24.99999999999982
 31
0.0
  0
LINE
  5
226E3
330
1F
100
AcDbEntity
  8
frame
100
AcDbLine
 10
425.0
 20
74.99999999999992
 30
0.0
 11
425.0
 21
24.99999999999982
 31
0.0
  0
LINE
  5
226E4
330
1F
100
AcDbEntity
  8
frame
100
AcDbLine
 10
400.0
 20
75.0
 30
0.0
 11
400.0000000000002
 21
25.00000000000019
 31
0.0
  0
LINE
  5
226E5
330
1F
100
AcDbEntity
  8
frame
100
AcDbLine
 10
225.0000000000002
 20
75.0
 30
0.0
 11
225.0000000000002
 21
0.0
 31
0.0
  0
MTEXT
  5
226E6
330
1F
100
AcDbEntity
  8
0
100
AcDbMText
 10
494.963093289838
 20
44.33464585902982
 30
0.0
 40
12.5
 41
0.0
 71
     1
 72
     5
  1
{\Ftxt,bigfont|c128;LED LIGHT}
  7
JL
 73
     1
 44
1.0
1001
ACAD
1000
MTEXTBEGIN
1070
    73
1070
     1
1070
    44
1040
1.0
1070
    74
1070
     0
1000
MTEXTEND
  0
MTEXT
  5
226E7
330
1F
100
AcDbEntity
  8
0
100
AcDbMText
 10
609.7348969605479
 20
45.4946755573271
 30
0.0
 40
12.5
 41
0.0
 71
     1
 72
     5
  1
{\Ftxt,bigfont|c128;NL\Ftxt,bigfont|c136;E26CNF\Ftxt,bigfont|c128;-DC}
  7
JL
 73
     1
 44
1.0
1001
ACAD
1000
MTEXTBEGIN
1070
    73
1070
     1
1070
    44
1040
1.0
1070
    74
1070
     0
1000
MTEXTEND
  0
MTEXT
  5
226E8
102
{ACAD_XDICTIONARY
360
22D65
102
}
330
1F
100
AcDbEntity
  8
dim
100
AcDbMText
 10
7.348787784048454
 20
142.8166636549717
 30
0.0
 40
12.5
 41
0.0
 71
     1
 72
     5
  3
\M+1945B\M+193FC\M+18E64\M+1976C:\P{\H0.7x;1.\M+193FC\M+197CD\M+19364\M+18CB9:DC24V\P2.\M+18FC1\M+194EF\M+19364\M+197CD:\Ftxt,bigfont|c136;20\Ftxt,bigfont|c128;W\P3\Ftxt,bigfont|c136;.\Ftxt,bigfont|c128;\M+19668\M+19085\M+18B4B\M+18A69:IP67\P\Ftxt,bi
  3
gfont|c136;4.\Ftxt,bigfont|c128;\M+19364\M+18CB9\M+19594\Ftxt,bigfont|c136;:\Ftxt,bigfont|c128;\M+192E8\M+19364\M+197AC\M+189F1\M+19848\P\Ftxt,bigfont|c136;5\Ftxt,bigfont|c128;.\M+18350\M+1815C\M+18375\M+1838B:\Ftxt,bigfont|c136;VCTF0.5mmx2C 3M\Ftxt,
  3
bigfont|c128;\M+1958D\M+191AE\Ftxt,bigfont|c136;\P6.M5x10L\Ftxt,bigfont|c128;\M+18EE6\M+19574\M+182AF\M+18E4D\M+193AA\M+1985A\M+18A70\M+18C8A\M+182CB\M+182B6\Ftxt,bigfont|c136;\P  (\A1;\Ftxt,bigfont|c128;\C3;\M+18D95\M+19046\A0;\C256;\M+18358\M+18365
  1
\M+18393\M+1838C\M+18358\Ftxt,bigfont|c136;),O\Ftxt,bigfont|c128;\M+1838A\M+18393\M+1834F\Ftxt,bigfont|c136;12\Ftxt,bigfont|c128;\M+19167\M+19574\M+191AE}
 73
     1
 44
1.0
1001
ACAD
1000
MTEXTBEGIN
1070
    73
1070
     1
1070
    44
1040
1.0
1070
    74
1070
     0
1000
MTEXTEND
  0
MTEXT
  5
226E9
102
{ACAD_XDICTIONARY
360
22D90
102
}
330
1F
100
AcDbEntity
  8
0
100
AcDbMText
 10
633.3221486031327
 20
18.3465487268352
 30
0.0
 40
12.5
 41
0.0
 71
     1
 72
     5
  1
\Ftxt.shx,bigfont.shx|c128;\M+195CF\M+18D58
  7
JL
 73
     1
 44
1.0
1001
ACAD
1000
MTEXTBEGIN
1070
    73
1070
     1
1070
    44
1040
1.0
1070
    74
1070
     0
1000
MTEXTEND
  0
MTEXT
  5
226EA
102
{ACAD_XDICTIONARY
360
22D92
102
}
330
1F
100
AcDbEntity
  8
0
100
AcDbMText
 10
354.7000727673674
 20
44.33464585902981
 30
0.0
 40
12.5
 41
0.0
 71
     1
 72
     5
  1
{\Ftxt,bigfont|c128;\M+18D5D \M+19590 \M+19092}
  7
JL
 73
     1
 44
1.0
1001
ACAD
1000
MTEXTBEGIN
1070
    73
1070
     1
1070
    44
1040
1.0
1070
    74
1070
     0
1000
MTEXTEND
  0
LINE
  5
226EB
330
1F
100
AcDbEntity
  8
contour
100
AcDbLine
 10
451.9467172692893
 20
360.9489778792713
 30
0.0
 11
479.1467172692884
 21
360.9489778792711
 31
0.0
  0
LINE
  5
226EC
330
1F
100
AcDbEntity
  8
contour
100
AcDbLine
 10
451.9467172692893
 20
355.1489778792713
 30
0.0
 11
479.146717269288
 21
355.1489778792711
 31
0.0
  0
ARC
  5
226ED
330
1F
100
AcDbEntity
  8
contour
100
AcDbCircle
 10
476.1424824468879
 20
359.498977879271
 30
0.0
 40
3.335854743258986
100
AcDbArc
 50
334.2356260287189
 51
25.76437397128107
  0
ARC
  5
226EE
330
1F
100
AcDbEntity
  8
contour
100
AcDbCircle
 10
482.1509520916886
 20
356.5989778792712
 30
0.0
 40
3.335854743258986
100
AcDbArc
 50
154.2356260287189
 51
205.764373971281
  0
ARC
  5
226EF
330
1F
100
AcDbEntity
  8
contour
100
AcDbCircle
 10
476.1424824468879
 20
356.5989778792707
 30
0.0
 40
3.335854743258986
100
AcDbArc
 50
334.2356260287189
 51
25.76437397128107
  0
ARC
  5
226F0
330
1F
100
AcDbEntity
  8
contour
100
AcDbCircle
 10
484.1509520916888
 20
356.5989778792707
 30
0.0
 40
3.335854743258986
100
AcDbArc
 50
154.2356260287189
 51
205.764373971281
  0
ARC
  5
226F1
330
1F
100
AcDbEntity
  8
contour
100
AcDbCircle
 10
478.1424824468881
 20
359.4989778792706
 30
0.0
 40
3.335854743258986
100
AcDbArc
 50
334.2356260287189
 51
25.76437397128107
  0
ARC
  5
226F2
330
1F
100
AcDbEntity
  8
contour
100
AcDbCircle
 10
484.1509520916888
 20
359.498977879271
 30
0.0
 40
3.335854743258986
100
AcDbArc
 50
154.2356260287189
 51
205.764373971281
  0
LINE
  5
226F3
330
1F
100
AcDbEntity
  8
contour
100
AcDbLine
 10
481.1467172692885
 20
360.9489778792706
 30
0.0
 11
491.1467172692883
 21
360.9489778792708
 31
0.0
  0
LINE
  5
226F4
330
1F
100
AcDbEntity
  8
contour
100
AcDbLine
 10
481.1467172692885
 20
355.1489778792707
 30
0.0
 11
491.1467172692883
 21
355.1489778792707
 31
0.0
  0
LINE
  5
226F5
330
1F
100
AcDbEntity
  8
contour
100
AcDbLine
 10
521.1467172692884
 20
360.1989778792706
 30
0.0
 11
542.3467172692883
 21
360.1989778792706
 31
0.0
  0
LINE
  5
226F6
330
1F
100
AcDbEntity
  8
contour
100
AcDbLine
 10
521.1467172692884
 20
358.2989778792708
 30
0.0
 11
542.3467172692883
 21
358.2989778792708
 31
0.0
  0
ARC
  5
226F7
330
1F
100
AcDbEntity
  8
contour
100
AcDbCircle
 10
542.3467172692883
 20
362.0989778792707
 30
0.0
 40
1.9
100
AcDbArc
 50
270.0
 51
0.0
  0
ARC
  5
226F8
330
1F
100
AcDbEntity
  8
contour
100
AcDbCircle
 10
542.3467172692883
 20
362.0989778792707
 30
0.0
 40
3.799999999999999
100
AcDbArc
 50
270.0
 51
0.0
  0
LINE
  5
226F9
330
1F
100
AcDbEntity
  8
contour
100
AcDbLine
 10
548.0467172692883
 20
363.9989778792706
 30
0.0
 11
566.1467172692884
 21
363.9989778792706
 31
0.0
  0
ARC
  5
226FA
330
1F
100
AcDbEntity
  8
contour
100
AcDbCircle
 10
548.0467172692883
 20
362.0989778792707
 30
0.0
 40
1.9
100
AcDbArc
 50
90.0
 51
180.0
  0
ARC
  5
226FB
330
1F
100
AcDbEntity
  8
contour
100
AcDbCircle
 10
548.0467172692883
 20
362.0989778792707
 30
0.0
 40
3.799999999999999
100
AcDbArc
 50
90.0
 51
180.0
  0
LINE
  5
226FC
330
1F
100
AcDbEntity
  8
contour
100
AcDbLine
 10
548.0467172692883
 20
365.8989778792707
 30
0.0
 11
566.1467172692884
 21
365.8989778792707
 31
0.0
  0
LINE
  5
226FD
330
1F
100
AcDbEntity
  8
contour
100
AcDbLine
 10
566.1467172692884
 20
365.8989778792707
 30
0.0
 11
566.1467172692884
 21
363.9989778792706
 31
0.0
  0
LINE
  5
226FE
330
1F
100
AcDbEntity
  8
contour
100
AcDbLine
 10
566.1467172692884
 20
365.3989778792706
 30
0.0
 11
571.1467172692884
 21
365.3989778792706
 31
0.0
  0
LINE
  5
226FF
330
1F
100
AcDbEntity
  8
contour
100
AcDbLine
 10
566.1467172692884
 20
364.4989778792706
 30
0.0
 11
571.1467172692884
 21
364.4989778792706
 31
0.0
  0
LINE
  5
22700
330
1F
100
AcDbEntity
  8
contour
100
AcDbLine
 10
566.1467172692884
 20
365.2189778792706
 30
0.0
 11
571.1467172692884
 21
365.2189778792706
 31
0.0
  0
LINE
  5
22701
330
1F
100
AcDbEntity
  8
contour
100
AcDbLine
 10
566.1467172692884
 20
365.0389778792705
 30
0.0
 11
571.1467172692884
 21
365.0389778792705
 31
0.0
  0
LINE
  5
22702
330
1F
100
AcDbEntity
  8
contour
100
AcDbLine
 10
566.1467172692884
 20
364.8589778792707
 30
0.0
 11
571.1467172692884
 21
364.8589778792707
 31
0.0
  0
LINE
  5
22703
330
1F
100
AcDbEntity
  8
contour
100
AcDbLine
 10
566.1467172692884
 20
364.6789778792706
 30
0.0
 11
571.1467172692884
 21
364.6789778792706
 31
0.0
  0
LINE
  5
22704
330
1F
100
AcDbEntity
  8
contour
100
AcDbLine
 10
521.1467172692884
 20
355.8989778792707
 30
0.0
 11
542.3467172692883
 21
355.8989778792707
 31
0.0
  0
LINE
  5
22705
330
1F
100
AcDbEntity
  8
contour
100
AcDbLine
 10
521.1467172692884
 20
357.7989778792708
 30
0.0
 11
542.3467172692883
 21
357.7989778792708
 31
0.0
  0
ARC
  5
22706
330
1F
100
AcDbEntity
  8
contour
100
AcDbCircle
 10
542.3467172692883
 20
353.9989778792708
 30
0.0
 40
1.9
100
AcDbArc
 50
0.0
 51
90.0
  0
ARC
  5
22707
330
1F
100
AcDbEntity
  8
contour
100
AcDbCircle
 10
542.3467172692883
 20
353.9989778792708
 30
0.0
 40
3.799999999999999
100
AcDbArc
 50
0.0
 51
90.0
  0
LINE
  5
22708
330
1F
100
AcDbEntity
  8
contour
100
AcDbLine
 10
548.0467172692883
 20
352.0989778792707
 30
0.0
 11
566.1467172692884
 21
352.0989778792707
 31
0.0
  0
ARC
  5
22709
330
1F
100
AcDbEntity
  8
contour
100
AcDbCircle
 10
548.0467172692883
 20
353.9989778792708
 30
0.0
 40
1.9
100
AcDbArc
 50
180.0
 51
270.0
  0
ARC
  5
2270A
330
1F
100
AcDbEntity
  8
contour
100
AcDbCircle
 10
548.0467172692883
 20
353.9989778792708
 30
0.0
 40
3.799999999999999
100
AcDbArc
 50
180.0
 51
270.0
  0
LINE
  5
2270B
330
1F
100
AcDbEntity
  8
contour
100
AcDbLine
 10
548.0467172692883
 20
350.1989778792709
 30
0.0
 11
566.1467172692884
 21
350.1989778792709
 31
0.0
  0
LINE
  5
2270C
330
1F
100
AcDbEntity
  8
contour
100
AcDbLine
 10
566.1467172692884
 20
350.1989778792709
 30
0.0
 11
566.1467172692884
 21
352.0989778792707
 31
0.0
  0
LINE
  5
2270D
330
1F
100
AcDbEntity
  8
contour
100
AcDbLine
 10
566.1467172692884
 20
350.6989778792708
 30
0.0
 11
571.1467172692884
 21
350.6989778792708
 31
0.0
  0
LINE
  5
2270E
330
1F
100
AcDbEntity
  8
contour
100
AcDbLine
 10
566.1467172692884
 20
351.5989778792707
 30
0.0
 11
571.1467172692884
 21
351.5989778792707
 31
0.0
  0
LINE
  5
2270F
330
1F
100
AcDbEntity
  8
contour
100
AcDbLine
 10
566.1467172692884
 20
350.8789778792709
 30
0.0
 11
571.1467172692884
 21
350.8789778792709
 31
0.0
  0
LINE
  5
22710
330
1F
100
AcDbEntity
  8
contour
100
AcDbLine
 10
566.1467172692884
 20
351.0589778792708
 30
0.0
 11
571.1467172692884
 21
351.0589778792708
 31
0.0
  0
LINE
  5
22711
330
1F
100
AcDbEntity
  8
contour
100
AcDbLine
 10
566.1467172692884
 20
351.2389778792708
 30
0.0
 11
571.1467172692884
 21
351.2389778792708
 31
0.0
  0
LINE
  5
22712
330
1F
100
AcDbEntity
  8
contour
100
AcDbLine
 10
566.1467172692884
 20
351.4189778792708
 30
0.0
 11
571.1467172692884
 21
351.4189778792708
 31
0.0
  0
LINE
  5
22713
330
1F
100
AcDbEntity
  8
contour
100
AcDbLine
 10
491.1467172692883
 20
361.5489778792707
 30
0.0
 11
491.1467172692883
 21
354.5489778792707
 31
0.0
  0
LINE
  5
22714
330
1F
100
AcDbEntity
  8
contour
100
AcDbLine
 10
491.1467172692883
 20
361.5489778792707
 30
0.0
 11
521.1467172692882
 21
361.5489778792707
 31
0.0
  0
LINE
  5
22715
330
1F
100
AcDbEntity
  8
contour
100
AcDbLine
 10
491.1467172692883
 20
354.5489778792707
 30
0.0
 11
521.1467172692882
 21
354.5489778792707
 31
0.0
  0
LINE
  5
22716
330
1F
100
AcDbEntity
  8
contour
100
AcDbLine
 10
521.1467172692882
 20
361.5489778792707
 30
0.0
 11
521.1467172692882
 21
354.5489778792707
 31
0.0
  0
ARC
  5
22717
330
1F
100
AcDbEntity
  8
contour
100
AcDbCircle
 10
94.94671726928936
 20
400.0489778792707
 30
0.0
 40
3.0
100
AcDbArc
 50
90.0
 51
180.0
  0
LINE
  5
22718
330
1F
100
AcDbEntity
  8
contour
100
AcDbLine
 10
91.94671726928936
 20
400.0489778792707
 30
0.0
 11
91.94671726928936
 21
316.0489778792708
 31
0.0
  0
ARC
  5
22719
330
1F
100
AcDbEntity
  8
contour
100
AcDbCircle
 10
94.94671726928936
 20
316.0489778792708
 30
0.0
 40
3.0
100
AcDbArc
 50
180.0
 51
270.0
  0
ARC
  5
2271A
330
1F
100
AcDbEntity
  8
contour
100
AcDbCircle
 10
137.4467172692893
 20
376.0489778792707
 30
0.0
 40
3.0
100
AcDbArc
 50
90.0
 51
180.0
  0
ARC
  5
2271B
330
1F
100
AcDbEntity
  8
contour
100
AcDbCircle
 10
137.4467172692893
 20
376.0489778792707
 30
0.0
 40
5.0
100
AcDbArc
 50
90.0
 51
180.0
  0
LINE
  5
2271C
330
1F
100
AcDbEntity
  8
contour
100
AcDbLine
 10
134.4467172692893
 20
376.0489778792707
 30
0.0
 11
134.4467172692893
 21
340.0489778792707
 31
0.0
  0
LINE
  5
2271D
330
1F
100
AcDbEntity
  8
contour
100
AcDbLine
 10
132.4467172692893
 20
376.0489778792707
 30
0.0
 11
132.4467172692893
 21
340.0489778792707
 31
0.0
  0
ARC
  5
2271E
330
1F
100
AcDbEntity
  8
contour
100
AcDbCircle
 10
137.4467172692893
 20
340.0489778792707
 30
0.0
 40
3.0
100
AcDbArc
 50
180.0
 51
270.0
  0
ARC
  5
2271F
330
1F
100
AcDbEntity
  8
contour
100
AcDbCircle
 10
137.4467172692893
 20
340.0489778792707
 30
0.0
 40
5.0
100
AcDbArc
 50
180.0
 51
270.0
  0
CIRCLE
  5
22720
330
1F
100
AcDbEntity
  8
contour
100
AcDbCircle
 10
141.9467172692893
 20
386.2989778792707
 30
0.0
 40
3.25
  0
CIRCLE
  5
22721
330
1F
100
AcDbEntity
  8
contour
100
AcDbCircle
 10
141.9467172692893
 20
329.7989778792707
 30
0.0
 40
3.25
  0
CIRCLE
  5
22722
330
1F
100
AcDbEntity
  8
contour
100
AcDbCircle
 10
101.9467172692893
 20
396.7989778792707
 30
0.0
 40
2.75
  0
CIRCLE
  5
22723
330
1F
100
AcDbEntity
  8
contour
100
AcDbCircle
 10
101.9467172692893
 20
319.2989778792707
 30
0.0
 40
2.75
  0
LINE
  5
22724
102
{ACAD_REACTORS
330
22788
102
}
330
1F
100
AcDbEntity
  8
center
100
AcDbLine
 10
94.69671726928936
 20
319.2989778792707
 30
0.0
 11
109.1967172692893
 21
319.2989778792707
 31
0.0
  0
LINE
  5
22725
330
1F
100
AcDbEntity
  8
center
100
AcDbLine
 10
101.9467172692893
 20
312.0489778792708
 30
0.0
 11
101.9467172692893
 21
326.5489778792708
 31
0.0
  0
CIRCLE
  5
22726
330
1F
100
AcDbEntity
  8
contour
100
AcDbCircle
 10
101.9467172692893
 20
319.2989778792707
 30
0.0
 40
4.499999999999886
  0
CIRCLE
  5
22727
330
1F
100
AcDbEntity
  8
contour
100
AcDbCircle
 10
101.9467172692893
 20
319.2989778792707
 30
0.0
 40
5.25
  0
LINE
  5
22728
102
{ACAD_REACTORS
330
22788
102
}
330
1F
100
AcDbEntity
  8
center
100
AcDbLine
 10
94.69671726928936
 20
396.7989778792707
 30
0.0
 11
109.1967172692893
 21
396.7989778792707
 31
0.0
  0
LINE
  5
22729
102
{ACAD_REACTORS
330
22784
102
}
330
1F
100
AcDbEntity
  8
center
100
AcDbLine
 10
101.9467172692893
 20
389.5489778792708
 30
0.0
 11
101.9467172692893
 21
404.0489778792707
 31
0.0
  0
CIRCLE
  5
2272A
330
1F
100
AcDbEntity
  8
contour
100
AcDbCircle
 10
101.9467172692893
 20
396.7989778792707
 30
0.0
 40
4.499999999999886
  0
CIRCLE
  5
2272B
330
1F
100
AcDbEntity
  8
contour
100
AcDbCircle
 10
101.9467172692893
 20
396.7989778792707
 30
0.0
 40
5.25
  0
CIRCLE
  5
2272C
330
1F
100
AcDbEntity
  8
contour
100
AcDbCircle
 10
101.9467172692893
 20
319.298977879271
 30
0.0
 40
3.25
  0
CIRCLE
  5
2272D
330
1F
100
AcDbEntity
  8
contour
100
AcDbCircle
 10
101.9467172692893
 20
396.7989778792707
 30
0.0
 40
3.25
  0
LINE
  5
2272E
330
1F
100
AcDbEntity
  8
contour
100
AcDbLine
 10
137.4467172692893
 20
379.0489778792708
 30
0.0
 11
276.073650310343
 21
379.0489778792708
 31
0.0
  0
LINE
  5
2272F
330
1F
100
AcDbEntity
  8
contour
100
AcDbLine
 10
137.4467172692893
 20
381.0489778792708
 30
0.0
 11
276.6095486952054
 21
381.0489778792708
 31
0.0
  0
LINE
  5
22730
330
1F
100
AcDbEntity
  8
contour
100
AcDbLine
 10
137.4467172692893
 20
337.0489778792708
 30
0.0
 11
264.8197842282361
 21
337.048977879271
 31
0.0
  0
LINE
  5
22731
330
1F
100
AcDbEntity
  8
contour
100
AcDbLine
 10
137.4467172692893
 20
335.0489778792708
 30
0.0
 11
264.2838858433738
 21
335.048977879271
 31
0.0
  0
LINE
  5
22732
330
1F
100
AcDbEntity
  8
contour
100
AcDbLine
 10
258.3890036098894
 20
313.0489778792707
 30
0.0
 11
94.94671726928936
 21
313.0489778792707
 31
0.0
  0
LINE
  5
22733
330
1F
100
AcDbEntity
  8
contour
100
AcDbLine
 10
94.94671726928936
 20
403.0489778792707
 30
0.0
 11
282.5044309286905
 21
403.0489778792707
 31
0.0
  0
CIRCLE
  5
22734
330
1F
100
AcDbEntity
  8
contour
100
AcDbCircle
 10
209.9467172692893
 20
396.7989778792707
 30
0.0
 40
2.75
  0
LINE
  5
22735
330
1F
100
AcDbEntity
  8
center
100
AcDbLine
 10
202.6967172692894
 20
396.7989778792707
 30
0.0
 11
217.1967172692894
 21
396.7989778792707
 31
0.0
  0
LINE
  5
22736
102
{ACAD_REACTORS
330
22784
102
}
330
1F
100
AcDbEntity
  8
center
100
AcDbLine
 10
209.9467172692893
 20
389.5489778792708
 30
0.0
 11
209.9467172692893
 21
404.0489778792707
 31
0.0
  0
CIRCLE
  5
22737
330
1F
100
AcDbEntity
  8
contour
100
AcDbCircle
 10
209.9467172692893
 20
396.7989778792707
 30
0.0
 40
4.499999999999886
  0
CIRCLE
  5
22738
330
1F
100
AcDbEntity
  8
contour
100
AcDbCircle
 10
209.9467172692893
 20
396.7989778792707
 30
0.0
 40
5.25
  0
CIRCLE
  5
22739
330
1F
100
AcDbEntity
  8
contour
100
AcDbCircle
 10
209.9467172692893
 20
396.7989778792707
 30
0.0
 40
3.25
  0
CIRCLE
  5
2273A
330
1F
100
AcDbEntity
  8
contour
100
AcDbCircle
 10
209.9467172692893
 20
319.298977879271
 30
0.0
 40
2.75
  0
LINE
  5
2273B
330
1F
100
AcDbEntity
  8
center
100
AcDbLine
 10
202.6967172692894
 20
319.298977879271
 30
0.0
 11
217.1967172692894
 21
319.298977879271
 31
0.0
  0
LINE
  5
2273C
330
1F
100
AcDbEntity
  8
center
100
AcDbLine
 10
209.9467172692893
 20
326.548977879271
 30
0.0
 11
209.9467172692893
 21
312.048977879271
 31
0.0
  0
CIRCLE
  5
2273D
330
1F
100
AcDbEntity
  8
contour
100
AcDbCircle
 10
209.9467172692893
 20
319.298977879271
 30
0.0
 40
4.499999999999886
  0
CIRCLE
  5
2273E
330
1F
100
AcDbEntity
  8
contour
100
AcDbCircle
 10
209.9467172692893
 20
319.298977879271
 30
0.0
 40
5.25
  0
CIRCLE
  5
2273F
330
1F
100
AcDbEntity
  8
contour
100
AcDbCircle
 10
209.9467172692893
 20
319.298977879271
 30
0.0
 40
3.25
  0
CIRCLE
  5
22740
330
1F
100
AcDbEntity
  8
contour
100
AcDbCircle
 10
141.9467172692893
 20
386.2989778792707
 30
0.0
 40
3.000000000000021
  0
LWPOLYLINE
  5
22741
330
1F
100
AcDbEntity
  8
contour
100
AcDbPolyline
 90
        6
 70
     1
 43
0.0
 10
142.9467172692893
 20
386.8763281484605
 10
141.9467172692893
 20
387.45367841765
 10
140.9467172692894
 20
386.8763281484605
 10
140.9467172692894
 20
385.7216276100812
 10
141.9467172692893
 20
385.1442773408917
 10
142.9467172692893
 20
385.7216276100812
  0
CIRCLE
  5
22742
330
1F
100
AcDbEntity
  8
contour
100
AcDbCircle
 10
141.9467172692893
 20
329.7989778792707
 30
0.0
 40
3.000000000000021
  0
LWPOLYLINE
  5
22743
330
1F
100
AcDbEntity
  8
contour
100
AcDbPolyline
 90
        6
 70
     1
 43
0.0
 10
142.9467172692893
 20
330.3763281484605
 10
141.9467172692893
 20
330.9536784176501
 10
140.9467172692894
 20
330.3763281484605
 10
140.9467172692894
 20
329.2216276100812
 10
141.9467172692893
 20
328.6442773408917
 10
142.9467172692893
 20
329.2216276100812
  0
CIRCLE
  5
22744
330
1F
100
AcDbEntity
  8
contour
100
AcDbCircle
 10
231.9467172692894
 20
386.2989778792707
 30
0.0
 40
3.25
  0
CIRCLE
  5
22745
330
1F
100
AcDbEntity
  8
contour
100
AcDbCircle
 10
231.9467172692894
 20
329.7989778792707
 30
0.0
 40
3.25
  0
CIRCLE
  5
22746
330
1F
100
AcDbEntity
  8
contour
100
AcDbCircle
 10
231.9467172692894
 20
386.2989778792707
 30
0.0
 40
3.000000000000021
  0
LWPOLYLINE
  5
22747
330
1F
100
AcDbEntity
  8
contour
100
AcDbPolyline
 90
        6
 70
     1
 43
0.0
 10
232.9467172692893
 20
386.8763281484605
 10
231.9467172692894
 20
387.45367841765
 10
230.9467172692894
 20
386.8763281484605
 10
230.9467172692894
 20
385.7216276100812
 10
231.9467172692894
 20
385.1442773408917
 10
232.9467172692893
 20
385.7216276100812
  0
CIRCLE
  5
22748
330
1F
100
AcDbEntity
  8
contour
100
AcDbCircle
 10
231.9467172692894
 20
329.7989778792707
 30
0.0
 40
3.000000000000021
  0
LWPOLYLINE
  5
22749
330
1F
100
AcDbEntity
  8
contour
100
AcDbPolyline
 90
        6
 70
     1
 43
0.0
 10
232.9467172692893
 20
330.3763281484605
 10
231.9467172692894
 20
330.9536784176501
 10
230.9467172692894
 20
330.3763281484605
 10
230.9467172692894
 20
329.2216276100812
 10
231.9467172692894
 20
328.6442773408917
 10
232.9467172692893
 20
329.2216276100812
  0
LINE
  5
2274A
330
1F
100
AcDbEntity
  8
section
100
AcDbLine
 10
283.0403293135523
 20
405.0489778792707
 30
0.0
 11
257.8531052250269
 21
311.0489778792707
 31
0.0
  0
ARC
  5
2274B
330
1F
100
AcDbEntity
  8
contour
100
AcDbCircle
 10
448.9467172692894
 20
316.0489778792708
 30
0.0
 40
3.0
100
AcDbArc
 50
270.0
 51
0.0
  0
LINE
  5
2274C
330
1F
100
AcDbEntity
  8
contour
100
AcDbLine
 10
451.9467172692893
 20
316.0489778792708
 30
0.0
 11
451.9467172692893
 21
400.0489778792707
 31
0.0
  0
ARC
  5
2274D
330
1F
100
AcDbEntity
  8
contour
100
AcDbCircle
 10
448.9467172692894
 20
400.0489778792707
 30
0.0
 40
3.0
100
AcDbArc
 50
0.0
 51
90.0
  0
ARC
  5
2274E
330
1F
100
AcDbEntity
  8
contour
100
AcDbCircle
 10
386.4467172692894
 20
340.0489778792707
 30
0.0
 40
3.0
100
AcDbArc
 50
270.0
 51
0.0
  0
ARC
  5
2274F
330
1F
100
AcDbEntity
  8
contour
100
AcDbCircle
 10
386.4467172692894
 20
340.0489778792707
 30
0.0
 40
5.0
100
AcDbArc
 50
270.0
 51
0.0
  0
LINE
  5
22750
330
1F
100
AcDbEntity
  8
contour
100
AcDbLine
 10
389.4467172692894
 20
340.0489778792707
 30
0.0
 11
389.4467172692894
 21
376.0489778792707
 31
0.0
  0
LINE
  5
22751
330
1F
100
AcDbEntity
  8
contour
100
AcDbLine
 10
391.4467172692894
 20
340.0489778792707
 30
0.0
 11
391.4467172692894
 21
376.0489778792707
 31
0.0
  0
ARC
  5
22752
330
1F
100
AcDbEntity
  8
contour
100
AcDbCircle
 10
386.4467172692894
 20
376.0489778792707
 30
0.0
 40
3.0
100
AcDbArc
 50
0.0
 51
90.0
  0
ARC
  5
22753
330
1F
100
AcDbEntity
  8
contour
100
AcDbCircle
 10
386.4467172692894
 20
376.0489778792707
 30
0.0
 40
5.0
100
AcDbArc
 50
0.0
 51
90.0
  0
CIRCLE
  5
22754
330
1F
100
AcDbEntity
  8
contour
100
AcDbCircle
 10
441.9467172692893
 20
396.7989778792707
 30
0.0
 40
2.75
  0
CIRCLE
  5
22755
330
1F
100
AcDbEntity
  8
contour
100
AcDbCircle
 10
441.9467172692893
 20
319.2989778792707
 30
0.0
 40
2.75
  0
LINE
  5
22756
330
1F
100
AcDbEntity
  8
center
100
AcDbLine
 10
434.6967172692894
 20
396.7989778792707
 30
0.0
 11
449.1967172692893
 21
396.7989778792707
 31
0.0
  0
LINE
  5
22757
330
1F
100
AcDbEntity
  8
center
100
AcDbLine
 10
441.9467172692893
 20
389.5489778792708
 30
0.0
 11
441.9467172692893
 21
404.0489778792707
 31
0.0
  0
CIRCLE
  5
22758
330
1F
100
AcDbEntity
  8
contour
100
AcDbCircle
 10
441.9467172692893
 20
396.7989778792707
 30
0.0
 40
3.25
  0
CIRCLE
  5
22759
330
1F
100
AcDbEntity
  8
contour
100
AcDbCircle
 10
441.9467172692893
 20
396.7989778792707
 30
0.0
 40
4.499999999999886
  0
CIRCLE
  5
2275A
330
1F
100
AcDbEntity
  8
contour
100
AcDbCircle
 10
441.9467172692893
 20
396.7989778792707
 30
0.0
 40
5.25
  0
LINE
  5
2275B
330
1F
100
AcDbEntity
  8
center
100
AcDbLine
 10
434.6967172692894
 20
319.2989778792707
 30
0.0
 11
449.1967172692893
 21
319.2989778792707
 31
0.0
  0
LINE
  5
2275C
330
1F
100
AcDbEntity
  8
center
100
AcDbLine
 10
441.9467172692893
 20
312.0489778792708
 30
0.0
 11
441.9467172692893
 21
326.5489778792708
 31
0.0
  0
CIRCLE
  5
2275D
330
1F
100
AcDbEntity
  8
contour
100
AcDbCircle
 10
441.9467172692893
 20
319.2989778792707
 30
0.0
 40
4.499999999999886
  0
CIRCLE
  5
2275E
330
1F
100
AcDbEntity
  8
contour
100
AcDbCircle
 10
441.9467172692893
 20
319.2989778792707
 30
0.0
 40
5.25
  0
CIRCLE
  5
2275F
330
1F
100
AcDbEntity
  8
contour
100
AcDbCircle
 10
441.9467172692893
 20
319.2989778792707
 30
0.0
 40
3.25
  0
LINE
  5
22760
330
1F
100
AcDbEntity
  8
contour
100
AcDbLine
 10
279.0736503103433
 20
379.0489778792708
 30
0.0
 11
386.4467172692894
 21
379.0489778792708
 31
0.0
  0
LINE
  5
22761
330
1F
100
AcDbEntity
  8
contour
100
AcDbLine
 10
279.6095486952054
 20
381.0489778792708
 30
0.0
 11
386.4467172692894
 21
381.0489778792708
 31
0.0
  0
LINE
  5
22762
330
1F
100
AcDbEntity
  8
contour
100
AcDbLine
 10
267.8197842282364
 20
337.048977879271
 30
0.0
 11
386.4467172692894
 21
337.0489778792708
 31
0.0
  0
LINE
  5
22763
330
1F
100
AcDbEntity
  8
contour
100
AcDbLine
 10
267.2838858433738
 20
335.048977879271
 30
0.0
 11
386.4467172692894
 21
335.0489778792708
 31
0.0
  0
LINE
  5
22764
330
1F
100
AcDbEntity
  8
contour
100
AcDbLine
 10
448.9467172692894
 20
313.0489778792707
 30
0.0
 11
261.3890036098896
 21
313.0489778792707
 31
0.0
  0
LINE
  5
22765
330
1F
100
AcDbEntity
  8
contour
100
AcDbLine
 10
285.5044309286907
 20
403.0489778792709
 30
0.0
 11
448.9467172692894
 21
403.0489778792707
 31
0.0
  0
CIRCLE
  5
22766
330
1F
100
AcDbEntity
  8
contour
100
AcDbCircle
 10
333.9467172692894
 20
396.7989778792707
 30
0.0
 40
2.75
  0
LINE
  5
22767
330
1F
100
AcDbEntity
  8
center
100
AcDbLine
 10
326.6967172692894
 20
396.7989778792707
 30
0.0
 11
341.1967172692893
 21
396.7989778792707
 31
0.0
  0
LINE
  5
22768
330
1F
100
AcDbEntity
  8
center
100
AcDbLine
 10
333.9467172692894
 20
389.5489778792708
 30
0.0
 11
333.9467172692894
 21
404.0489778792707
 31
0.0
  0
CIRCLE
  5
22769
330
1F
100
AcDbEntity
  8
contour
100
AcDbCircle
 10
333.9467172692894
 20
396.7989778792707
 30
0.0
 40
4.499999999999886
  0
CIRCLE
  5
2276A
330
1F
100
AcDbEntity
  8
contour
100
AcDbCircle
 10
333.9467172692894
 20
396.7989778792707
 30
0.0
 40
5.25
  0
CIRCLE
  5
2276B
330
1F
100
AcDbEntity
  8
contour
100
AcDbCircle
 10
333.9467172692894
 20
396.7989778792707
 30
0.0
 40
3.25
  0
CIRCLE
  5
2276C
330
1F
100
AcDbEntity
  8
contour
100
AcDbCircle
 10
333.9467172692894
 20
319.298977879271
 30
0.0
 40
2.75
  0
LINE
  5
2276D
330
1F
100
AcDbEntity
  8
center
100
AcDbLine
 10
326.6967172692894
 20
319.298977879271
 30
0.0
 11
341.1967172692893
 21
319.298977879271
 31
0.0
  0
LINE
  5
2276E
330
1F
100
AcDbEntity
  8
center
100
AcDbLine
 10
333.9467172692894
 20
326.548977879271
 30
0.0
 11
333.9467172692894
 21
312.048977879271
 31
0.0
  0
CIRCLE
  5
2276F
330
1F
100
AcDbEntity
  8
contour
100
AcDbCircle
 10
333.9467172692894
 20
319.298977879271
 30
0.0
 40
4.499999999999886
  0
CIRCLE
  5
22770
330
1F
100
AcDbEntity
  8
contour
100
AcDbCircle
 10
333.9467172692894
 20
319.298977879271
 30
0.0
 40
5.25
  0
CIRCLE
  5
22771
330
1F
100
AcDbEntity
  8
contour
100
AcDbCircle
 10
333.9467172692894
 20
319.298977879271
 30
0.0
 40
3.25
  0
CIRCLE
  5
22772
330
1F
100
AcDbEntity
  8
contour
100
AcDbCircle
 10
391.9467172692894
 20
386.298977879271
 30
0.0
 40
3.25
  0
CIRCLE
  5
22773
330
1F
100
AcDbEntity
  8
contour
100
AcDbCircle
 10
391.9467172692894
 20
329.798977879271
 30
0.0
 40
3.25
  0
CIRCLE
  5
22774
330
1F
100
AcDbEntity
  8
contour
100
AcDbCircle
 10
391.9467172692894
 20
386.2989778792707
 30
0.0
 40
3.25
  0
CIRCLE
  5
22775
330
1F
100
AcDbEntity
  8
contour
100
AcDbCircle
 10
391.9467172692894
 20
329.7989778792707
 30
0.0
 40
3.25
  0
CIRCLE
  5
22776
330
1F
100
AcDbEntity
  8
contour
100
AcDbCircle
 10
391.9467172692894
 20
386.2989778792707
 30
0.0
 40
3.000000000000021
  0
LWPOLYLINE
  5
22777
330
1F
100
AcDbEntity
  8
contour
100
AcDbPolyline
 90
        6
 70
     1
 43
0.0
 10
392.9467172692893
 20
386.8763281484605
 10
391.9467172692894
 20
387.45367841765
 10
390.9467172692894
 20
386.8763281484605
 10
390.9467172692894
 20
385.7216276100812
 10
391.9467172692894
 20
385.1442773408917
 10
392.9467172692893
 20
385.7216276100812
  0
CIRCLE
  5
22778
330
1F
100
AcDbEntity
  8
contour
100
AcDbCircle
 10
391.9467172692894
 20
329.7989778792707
 30
0.0
 40
3.000000000000021
  0
LWPOLYLINE
  5
22779
330
1F
100
AcDbEntity
  8
contour
100
AcDbPolyline
 90
        6
 70
     1
 43
0.0
 10
392.9467172692893
 20
330.3763281484605
 10
391.9467172692894
 20
330.9536784176501
 10
390.9467172692894
 20
330.3763281484605
 10
390.9467172692894
 20
329.2216276100812
 10
391.9467172692894
 20
328.6442773408917
 10
392.9467172692893
 20
329.2216276100812
  0
CIRCLE
  5
2277A
330
1F
100
AcDbEntity
  8
contour
100
AcDbCircle
 10
301.9467172692894
 20
386.2989778792707
 30
0.0
 40
3.25
  0
CIRCLE
  5
2277B
330
1F
100
AcDbEntity
  8
contour
100
AcDbCircle
 10
301.9467172692894
 20
329.7989778792707
 30
0.0
 40
3.25
  0
CIRCLE
  5
2277C
330
1F
100
AcDbEntity
  8
contour
100
AcDbCircle
 10
301.9467172692894
 20
386.2989778792707
 30
0.0
 40
3.000000000000021
  0
LWPOLYLINE
  5
2277D
330
1F
100
AcDbEntity
  8
contour
100
AcDbPolyline
 90
        6
 70
     1
 43
0.0
 10
302.9467172692894
 20
386.8763281484605
 10
301.9467172692894
 20
387.45367841765
 10
300.9467172692894
 20
386.8763281484605
 10
300.9467172692894
 20
385.7216276100812
 10
301.9467172692894
 20
385.1442773408917
 10
302.9467172692894
 20
385.7216276100812
  0
CIRCLE
  5
2277E
330
1F
100
AcDbEntity
  8
contour
100
AcDbCircle
 10
301.9467172692894
 20
329.7989778792707
 30
0.0
 40
3.000000000000021
  0
LWPOLYLINE
  5
2277F
330
1F
100
AcDbEntity
  8
contour
100
AcDbPolyline
 90
        6
 70
     1
 43
0.0
 10
302.9467172692894
 20
330.3763281484605
 10
301.9467172692894
 20
330.9536784176501
 10
300.9467172692894
 20
330.3763281484605
 10
300.9467172692894
 20
329.2216276100812
 10
301.9467172692894
 20
328.6442773408917
 10
302.9467172692894
 20
329.2216276100812
  0
LINE
  5
22780
330
1F
100
AcDbEntity
  8
section
100
AcDbLine
 10
286.0403293135523
 20
405.0489778792707
 30
0.0
 11
260.8531052250269
 21
311.0489778792707
 31
0.0
  0
LINE
  5
22781
330
1F
100
AcDbEntity
  8
center
 48
3.0
100
AcDbLine
 10
453.9467172692893
 20
358.0489778792708
 30
0.0
 11
89.94671726928936
 21
358.0489778792708
 31
0.0
  0
DIMENSION
  5
22782
102
{ACAD_XDICTIONARY
360
22783
102
}
102
{ACAD_REACTORS
330
22784
102
}
330
1F
100
AcDbEntity
  8
mark
100
AcDbDimension
  2
*D62
 10
209.9467172692893
 20
421.1820778911414
 30
0.0
 11
155.9467172692893
 21
428.9320778911415
 31
0.0
 70
    32
 71
     5
 42
108.0
  3
Standard
100
AcDbAlignedDimension
 13
101.9467172692893
 23
404.0489778792707
 33
0.0
 14
209.9467172692893
 24
404.0489778792708
 34
0.0
100
AcDbRotatedDimension
1001
ACAD
1000
DSTYLE
1002
{
1070
    90
1070
     1
1070
   345
1005
14
1070
   346
1005
14
1070
   347
1005
14
1002
}
  0
DIMENSION
  5
22785
330
1F
100
AcDbEntity
  8
mark
100
AcDbDimension
  2
*D59
 10
441.9467172692893
 20
448.0511082417956
 30
0.0
 11
271.9467172692894
 21
455.8011082417956
 31
0.0
 70
    32
  1
108x5=540
 71
     5
 42
340.0
  3
Standard
100
AcDbAlignedDimension
 13
101.9467172692893
 23
404.0489778792707
 33
0.0
 14
441.9467172692893
 24
404.0489778792708
 34
0.0
100
AcDbRotatedDimension
1001
ACAD
1000
DSTYLE
1002
{
1070
    90
1070
     1
1070
   345
1005
14
1070
   346
1005
14
1070
   347
1005
14
1002
}
  0
DIMENSION
  5
22786
102
{ACAD_XDICTIONARY
360
22787
102
}
102
{ACAD_REACTORS
330
22788
102
}
330
1F
100
AcDbEntity
  8
mark
100
AcDbDimension
  2
*D63
 10
66.44728245016358
 20
319.2989778792707
 30
0.0
 11
58.69728245016354
 21
358.0489778792708
 31
0.0
 70
    32
 71
     5
 42
77.5
  3
Standard
100
AcDbAlignedDimension
 13
94.69671726928936
 23
396.7989778792707
 33
0.0
 14
94.69671726928936
 24
319.2989778792707
 34
0.0
 50
90.0
100
AcDbRotatedDimension
1001
ACAD
1000
DSTYLE
1002
{
1070
    90
1070
     1
1070
   345
1005
14
1070
   346
1005
14
1070
   347
1005
14
1002
}
  0
MTEXT
  5
22789
102
{ACAD_XDICTIONARY
360
22D94
102
}
330
1F
100
AcDbEntity
  8
mark
 62
     3
100
AcDbMText
 10
496.2647576052859
 20
429.2802249715103
 30
0.0
 40
8.75
 41
194.3655531136103
 71
     5
 72
     1
  3
{\Ftxt,bigfont|c136;1.}\M+18BC9\M+190AB\M+18356-\M+1838B\P{\Ftxt,bigfont|c136;        }\M+193FC\M+197CD\M+19364\M+188B3{\Ftxt,bigfont|c136;DC24V\P+}\M+19492{\Ftxt,bigfont|c136;/-}\M+18D95{\Ftxt,bigfont|c136;\P    2.}\M+1944D\M+18EFB\M+18F6B\M+18360\M
  1
+18385-\M+18375
 73
     1
 44
1.0
1001
ACAD
1000
ACAD_MTEXT_COLUMN_INFO_BEGIN
1070
    75
1070
     2
1070
    79
1070
     0
1070
    76
1070
     1
1070
    78
1070
     0
1070
    48
1040
194.3655531136103
1070
    49
1040
12.5
1070
    50
1070
     1
1040
0.0
1000
ACAD_MTEXT_COLUMN_INFO_END
1000
MTEXTBEGIN
1070
    73
1070
     1
1070
    44
1040
1.0
1070
    74
1070
     0
1000
MTEXTEND
  0
LEADER
  5
2278A
330
1F
100
AcDbEntity
  8
mark
100
AcDbLeader
  3
Standard
 76
     2
 10
506.1467172692882
 20
361.5489778792707
 30
0.0
 10
506.1467172692882
 20
393.0489778792714
 30
0.0
1001
ACAD
1000
DSTYLE
1002
{
1070
    90
1070
     1
1070
   345
1005
14
1070
   346
1005
14
1070
   347
1005
14
1002
}
  0
LEADER
  5
2278B
330
1F
100
AcDbEntity
  8
mark
100
AcDbLeader
  3
Standard
 76
     3
 10
394.2448143081456
 20
327.5008808404147
 30
0.0
 10
432.7233480648671
 20
289.0223470836932
 30
0.0
 10
318.4783927170126
 20
289.0223470836932
 30
0.0
1001
ACAD
1000
DSTYLE
1002
{
1070
   147
1040
1.35
1070
    77
1070
     0
1070
    90
1070
     1
1070
   345
1005
14
1070
   346
1005
14
1070
   347
1005
14
1002
}
  0
MTEXT
  5
2278C
102
{ACAD_XDICTIONARY
360
22D67
102
}
330
1F
100
AcDbEntity
  8
dim
 62
     3
100
AcDbMText
 10
400.8600492093767
 20
288.9301814923304
 30
0.0
 40
8.75
 41
163.3365254116188
 71
     5
 72
     1
  1
\A1;{\Ftxt,bigfont|c136;M3\A0;\Ftxt,bigfont|c128;\C256;\M+18E4D\M+193AA\M+1985A\M+18A70\M+18C8A\M+182CB\M+182B6\Ftxt,bigfont|c136;\P}\M+18D95\M+19046{\A0;\C256;\M+18358\M+18365\M+18393\M+1838C\M+18358}
 73
     1
 44
1.0
1001
ACAD
1000
MTEXTBEGIN
1070
    73
1070
     1
1070
    44
1040
1.0
1070
    74
1070
     0
1000
MTEXTEND
  0
LINE
  5
2278D
330
1F
100
AcDbEntity
  8
contour
100
AcDbLine
 10
126.9467172692893
 20
234.4950859572996
 30
0.0
 11
126.9467172692893
 21
211.4950859572998
 31
0.0
  0
LINE
  5
2278E
330
1F
100
AcDbEntity
  8
contour
100
AcDbLine
 10
121.9467172692893
 20
211.4950859572998
 30
0.0
 11
266.7624158733616
 21
211.4950859572999
 31
0.0
  0
LINE
  5
2278F
330
1F
100
AcDbEntity
  8
contour
100
AcDbLine
 10
269.7624158733615
 20
211.4950859572999
 30
0.0
 11
406.9467172692891
 21
211.4950859572999
 31
0.0
  0
LINE
  5
22790
330
1F
100
AcDbEntity
  8
contour
100
AcDbLine
 10
406.9467172692894
 20
211.4950859572998
 30
0.0
 11
407.2467172692893
 21
211.4950859572998
 31
0.0
  0
LINE
  5
22791
330
1F
100
AcDbEntity
  8
contour
100
AcDbLine
 10
406.9467172692891
 20
234.4950859572997
 30
0.0
 11
406.9467172692894
 21
211.4950859572998
 31
0.0
  0
LINE
  5
22792
330
1F
100
AcDbEntity
  8
contour
100
AcDbLine
 10
92.94671726928937
 20
238.9950859572998
 30
0.0
 11
274.1310186652177
 21
238.9950859572998
 31
0.0
  0
LINE
  5
22793
330
1F
100
AcDbEntity
  8
contour
100
AcDbLine
 10
277.1310186652176
 20
238.9950859572998
 30
0.0
 11
450.9467172692893
 21
238.9950859572998
 31
0.0
  0
LINE
  5
22794
102
{ACAD_REACTORS
330
227E6
102
}
330
1F
100
AcDbEntity
  8
contour
100
AcDbLine
 10
91.94671726928936
 20
235.9950859572997
 30
0.0
 11
273.327171087924
 21
235.9950859572996
 31
0.0
  0
LINE
  5
22795
330
1F
100
AcDbEntity
  8
contour
100
AcDbLine
 10
276.3271710879239
 20
235.9950859572996
 30
0.0
 11
451.9467172692893
 21
235.9950859572996
 31
0.0
  0
LINE
  5
22796
330
1F
100
AcDbEntity
  8
contour
100
AcDbLine
 10
126.9467172692893
 20
228.4950859572999
 30
0.0
 11
271.3175521446908
 21
228.4950859572999
 31
0.0
  0
LINE
  5
22797
330
1F
100
AcDbEntity
  8
contour
100
AcDbLine
 10
274.3175521446908
 20
228.4950859572999
 30
0.0
 11
406.9467172692891
 21
228.4950859572999
 31
0.0
  0
LINE
  5
22798
330
1F
100
AcDbEntity
  8
contour
100
AcDbLine
 10
126.9467172692893
 20
216.4950859572998
 30
0.0
 11
268.1021618355174
 21
216.4950859572998
 31
0.0
  0
LINE
  5
22799
330
1F
100
AcDbEntity
  8
contour
100
AcDbLine
 10
271.1021618355173
 20
216.4950859572998
 30
0.0
 11
406.9467172692891
 21
216.4950859572998
 31
0.0
  0
ARC
  5
2279A
330
1F
100
AcDbEntity
  8
contour
100
AcDbCircle
 10
450.9467172692893
 20
237.9950859572999
 30
0.0
 40
1.0
100
AcDbArc
 50
0.0
 51
90.0
  0
LINE
  5
2279B
102
{ACAD_REACTORS
330
227E3
102
}
330
1F
100
AcDbEntity
  8
contour
100
AcDbLine
 10
451.9467172692893
 20
235.9950859572998
 30
0.0
 11
451.9467172692893
 21
237.9950859572999
 31
0.0
  0
LINE
  5
2279C
330
1F
100
AcDbEntity
  8
contour
100
AcDbLine
 10
415.4467172692895
 20
211.4950859572998
 30
0.0
 11
406.9467172692894
 21
211.4950859572998
 31
0.0
  0
LINE
  5
2279D
102
{ACAD_REACTORS
330
227EA
102
}
330
1F
100
AcDbEntity
  8
contour
100
AcDbLine
 10
416.9467172692893
 20
234.4950859573002
 30
0.0
 11
416.9467172692895
 21
212.9950859572999
 31
0.0
  0
ARC
  5
2279E
102
{ACAD_REACTORS
330
227EA
102
}
330
1F
100
AcDbEntity
  8
contour
100
AcDbCircle
 10
415.4467172692895
 20
212.9950859572999
 30
0.0
 40
1.5
100
AcDbArc
 50
270.0
 51
0.0
  0
LINE
  5
2279F
330
1F
100
AcDbEntity
  8
contour
100
AcDbLine
 10
118.4467172692893
 20
211.4950859572998
 30
0.0
 11
126.9467172692893
 21
211.4950859572998
 31
0.0
  0
ARC
  5
227A0
102
{ACAD_REACTORS
330
227ED
102
}
330
1F
100
AcDbEntity
  8
contour
100
AcDbCircle
 10
118.4467172692893
 20
212.9950859572999
 30
0.0
 40
1.5
100
AcDbArc
 50
180.0
 51
270.0
  0
LINE
  5
227A1
330
1F
100
AcDbEntity
  8
contour
100
AcDbLine
 10
126.9467172692893
 20
234.4950859573003
 30
0.0
 11
126.9467172692893
 21
211.4950859572998
 31
0.0
  0
LINE
  5
227A2
102
{ACAD_REACTORS
330
227E6
102
}
330
1F
100
AcDbEntity
  8
contour
100
AcDbLine
 10
116.9467172692893
 20
234.4950859573003
 30
0.0
 11
116.9467172692893
 21
212.9950859572999
 31
0.0
  0
LINE
  5
227A3
330
1F
100
AcDbEntity
  8
contour
100
AcDbLine
 10
418.7467172692952
 20
232.9950859573004
 30
0.0
 11
416.9467172692895
 21
232.9950859573004
 31
0.0
  0
LINE
  5
227A4
330
1F
100
AcDbEntity
  8
contour
100
AcDbLine
 10
423.2467172692897
 20
218.2450859573
 30
0.0
 11
423.2467172692897
 21
232.7450859573
 31
0.0
  0
LINE
  5
227A5
330
1F
100
AcDbEntity
  8
contour
100
AcDbLine
 10
427.1467172692898
 20
218.2450859573
 30
0.0
 11
427.1467172692898
 21
232.7450859573002
 31
0.0
  0
LINE
  5
227A6
330
1F
100
AcDbEntity
  8
contour
100
AcDbLine
 10
423.2467172692902
 20
218.2450859573002
 30
0.0
 11
418.7467172692952
 21
218.2450859573002
 31
0.0
  0
LINE
  5
227A7
330
1F
100
AcDbEntity
  8
contour
100
AcDbLine
 10
423.2467172692897
 20
232.7450859573
 30
0.0
 11
418.7467172692952
 21
232.7450859573
 31
0.0
  0
LINE
  5
227A8
330
1F
100
AcDbEntity
  8
contour
100
AcDbLine
 10
423.2467172692897
 20
229.5034162064978
 30
0.0
 11
418.7467172692952
 21
229.5034162064978
 31
0.0
  0
LINE
  5
227A9
330
1F
100
AcDbEntity
  8
contour
100
AcDbLine
 10
423.2467172692897
 20
228.7367557081024
 30
0.0
 11
418.7467172692952
 21
228.7367557081024
 31
0.0
  0
LINE
  5
227AA
330
1F
100
AcDbEntity
  8
contour
100
AcDbLine
 10
423.2467172692897
 20
222.2534162064977
 30
0.0
 11
418.7467172692952
 21
222.2534162064977
 31
0.0
  0
LINE
  5
227AB
330
1F
100
AcDbEntity
  8
contour
100
AcDbLine
 10
423.2467172692897
 20
221.4867557081024
 30
0.0
 11
418.7467172692952
 21
221.4867557081024
 31
0.0
  0
LINE
  5
227AC
330
1F
100
AcDbEntity
  8
contour
100
AcDbLine
 10
423.2467172692897
 20
219.9950859573
 30
0.0
 11
427.1467172692898
 21
219.9950859573
 31
0.0
  0
LINE
  5
227AD
330
1F
100
AcDbEntity
  8
contour
100
AcDbLine
 10
423.2467172692897
 20
230.9950859573
 30
0.0
 11
427.1467172692898
 21
230.9950859573
 31
0.0
  0
LINE
  5
227AE
330
1F
100
AcDbEntity
  8
contour
 62
     4
100
AcDbLine
 10
423.2467172692897
 20
220.9950859572999
 30
0.0
 11
427.1467172692898
 21
220.9950859572999
 31
0.0
  0
LINE
  5
227AF
330
1F
100
AcDbEntity
  8
contour
 62
     4
100
AcDbLine
 10
423.2467172692897
 20
229.9950859572999
 30
0.0
 11
427.1467172692898
 21
229.9950859572999
 31
0.0
  0
LINE
  5
227B0
330
1F
100
AcDbEntity
  8
contour
100
AcDbLine
 10
439.1467172692898
 20
221.7450859572999
 30
0.0
 11
439.1467172692898
 21
229.2450859573002
 31
0.0
  0
ARC
  5
227B1
330
1F
100
AcDbEntity
  8
contour
100
AcDbCircle
 10
436.6467172692899
 20
221.7450859572999
 30
0.0
 40
2.5
100
AcDbArc
 50
270.0
 51
0.0
  0
LINE
  5
227B2
330
1F
100
AcDbEntity
  8
contour
100
AcDbLine
 10
435.1467172692898
 20
219.2450859572999
 30
0.0
 11
435.1467172692898
 21
231.7450859573002
 31
0.0
  0
LINE
  5
227B3
330
1F
100
AcDbEntity
  8
contour
100
AcDbLine
 10
434.1523339285611
 20
229.5034162064978
 30
0.0
 11
427.1467172692898
 21
229.5034162064978
 31
0.0
  0
LINE
  5
227B4
330
1F
100
AcDbEntity
  8
contour
100
AcDbLine
 10
434.1523339285611
 20
228.7367557081024
 30
0.0
 11
427.1467172692898
 21
228.7367557081024
 31
0.0
  0
LINE
  5
227B5
330
1F
100
AcDbEntity
  8
contour
100
AcDbLine
 10
434.1523339285607
 20
222.2534162064977
 30
0.0
 11
427.1467172692898
 21
222.2534162064977
 31
0.0
  0
LINE
  5
227B6
330
1F
100
AcDbEntity
  8
contour
100
AcDbLine
 10
434.1523339285607
 20
221.4867557081024
 30
0.0
 11
427.1467172692898
 21
221.4867557081024
 31
0.0
  0
LINE
  5
227B7
330
1F
100
AcDbEntity
  8
contour
100
AcDbLine
 10
427.1467172692898
 20
218.2450859573
 30
0.0
 11
434.1525804626278
 21
218.2450859573
 31
0.0
  0
LINE
  5
227B8
330
1F
100
AcDbEntity
  8
contour
100
AcDbLine
 10
427.1467172692898
 20
232.7450859573
 30
0.0
 11
434.1525804626278
 21
232.7450859573002
 31
0.0
  0
LINE
  5
227B9
330
1F
100
AcDbEntity
  8
contour
100
AcDbLine
 10
436.6467172692899
 20
219.2450859572999
 30
0.0
 11
435.1467172692898
 21
219.2450859572999
 31
0.0
  0
ARC
  5
227BA
330
1F
100
AcDbEntity
  8
contour
100
AcDbCircle
 10
436.6467172692899
 20
229.2450859573002
 30
0.0
 40
2.5
100
AcDbArc
 50
0.0
 51
90.0
  0
LINE
  5
227BB
330
1F
100
AcDbEntity
  8
contour
100
AcDbLine
 10
436.6467172692899
 20
231.7450859573002
 30
0.0
 11
435.1467172692898
 21
231.7450859573002
 31
0.0
  0
ARC
  5
227BC
330
1F
100
AcDbEntity
  8
contour
100
AcDbCircle
 10
423.7717172692899
 20
225.4950859573002
 30
0.0
 40
10.875
100
AcDbArc
 50
342.6574054911545
 51
17.34259450884541
  0
LINE
  5
227BD
330
1F
100
AcDbEntity
  8
contour
100
AcDbLine
 10
434.1523339285607
 20
222.2534162064977
 30
0.0
 11
434.1523339285611
 21
221.4867557081024
 31
0.0
  0
LINE
  5
227BE
330
1F
100
AcDbEntity
  8
contour
100
AcDbLine
 10
434.1523339285611
 20
228.7367557081024
 30
0.0
 11
434.1523339285611
 21
229.5034162064978
 31
0.0
  0
ARC
  5
227BF
330
1F
100
AcDbEntity
  8
contour
100
AcDbCircle
 10
431.7413711806123
 20
219.8659208327012
 30
0.0
 40
2.905346088677734
100
AcDbArc
 50
326.090678467388
 51
33.90932153261196
  0
ARC
  5
227C0
330
1F
100
AcDbEntity
  8
contour
100
AcDbCircle
 10
431.7413711806123
 20
231.124251081899
 30
0.0
 40
2.905346088677734
100
AcDbArc
 50
326.090678467388
 51
33.90932153261196
  0
LINE
  5
227C1
330
1F
100
AcDbEntity
  8
contour
100
AcDbLine
 10
435.1467172692898
 20
219.2450859572999
 30
0.0
 11
434.1525804626278
 21
218.2450859573
 31
0.0
  0
LINE
  5
227C2
330
1F
100
AcDbEntity
  8
contour
100
AcDbLine
 10
435.1467172692898
 20
231.7450859573002
 30
0.0
 11
434.1525804626278
 21
232.7450859573002
 31
0.0
  0
LINE
  5
227C3
330
1F
100
AcDbEntity
  8
contour
 62
     4
100
AcDbLine
 10
434.3329782936709
 20
222.9017501566581
 30
0.0
 11
427.1467172692898
 21
222.9017501566581
 31
0.0
  0
LINE
  5
227C4
330
1F
100
AcDbEntity
  8
contour
 62
     4
100
AcDbLine
 10
434.4713711329261
 20
223.5500841068187
 30
0.0
 11
427.1467172692898
 21
223.5500841068187
 31
0.0
  0
LINE
  5
227C5
330
1F
100
AcDbEntity
  8
contour
 62
     4
100
AcDbLine
 10
434.5691372090848
 20
224.198418056979
 30
0.0
 11
427.1467172692898
 21
224.198418056979
 31
0.0
  0
LINE
  5
227C6
330
1F
100
AcDbEntity
  8
contour
 62
     4
100
AcDbLine
 10
434.6273742318633
 20
224.8467520071396
 30
0.0
 11
427.1467172692898
 21
224.8467520071396
 31
0.0
  0
LINE
  5
227C7
330
1F
100
AcDbEntity
  8
contour
 62
     4
100
AcDbLine
 10
434.6467172692898
 20
225.4950859572999
 30
0.0
 11
427.1467172692898
 21
225.4950859572999
 31
0.0
  0
LINE
  5
227C8
330
1F
100
AcDbEntity
  8
contour
 62
     4
100
AcDbLine
 10
434.6273742318633
 20
226.1434199074605
 30
0.0
 11
427.1467172692898
 21
226.1434199074605
 31
0.0
  0
LINE
  5
227C9
330
1F
100
AcDbEntity
  8
contour
 62
     4
100
AcDbLine
 10
434.5691372090848
 20
226.7917538576209
 30
0.0
 11
427.1467172692898
 21
226.7917538576209
 31
0.0
  0
LINE
  5
227CA
330
1F
100
AcDbEntity
  8
contour
 62
     4
100
AcDbLine
 10
434.4713711329261
 20
227.4400878077814
 30
0.0
 11
427.1467172692898
 21
227.4400878077814
 31
0.0
  0
LINE
  5
227CB
330
1F
100
AcDbEntity
  8
contour
 62
     4
100
AcDbLine
 10
434.3329782936709
 20
228.0884217579418
 30
0.0
 11
427.1467172692898
 21
228.0884217579418
 31
0.0
  0
LINE
  5
227CC
330
1F
100
AcDbEntity
  8
contour
 62
     4
100
AcDbLine
 10
434.4791216888581
 20
218.8934199074605
 30
0.0
 11
427.1467172692898
 21
218.8934199074605
 31
0.0
  0
LINE
  5
227CD
330
1F
100
AcDbEntity
  8
contour
 62
     4
100
AcDbLine
 10
434.6285759996824
 20
219.5417538576209
 30
0.0
 11
427.1467172692898
 21
219.5417538576209
 31
0.0
  0
LINE
  5
227CE
330
1F
100
AcDbEntity
  8
contour
 62
     4
100
AcDbLine
 10
434.6285759996824
 20
220.1900878077815
 30
0.0
 11
427.1467172692898
 21
220.1900878077815
 31
0.0
  0
LINE
  5
227CF
330
1F
100
AcDbEntity
  8
contour
 62
     4
100
AcDbLine
 10
434.4791216888581
 20
220.8384217579418
 30
0.0
 11
427.1467172692898
 21
220.8384217579418
 31
0.0
  0
LINE
  5
227D0
330
1F
100
AcDbEntity
  8
contour
 62
     4
100
AcDbLine
 10
434.4791216888581
 20
232.0967520071396
 30
0.0
 11
427.1467172692898
 21
232.0967520071396
 31
0.0
  0
LINE
  5
227D1
330
1F
100
AcDbEntity
  8
contour
 62
     4
100
AcDbLine
 10
434.6285759996824
 20
231.4484180569793
 30
0.0
 11
427.1467172692898
 21
231.4484180569793
 31
0.0
  0
LINE
  5
227D2
330
1F
100
AcDbEntity
  8
contour
 62
     4
100
AcDbLine
 10
434.6285759996824
 20
230.8000841068187
 30
0.0
 11
427.1467172692898
 21
230.8000841068187
 31
0.0
  0
LINE
  5
227D3
330
1F
100
AcDbEntity
  8
contour
 62
     4
100
AcDbLine
 10
434.4791216888581
 20
230.1517501566583
 30
0.0
 11
427.1467172692898
 21
230.1517501566583
 31
0.0
  0
LINE
  5
227D4
330
1F
100
AcDbEntity
  8
contour
100
AcDbLine
 10
418.7467172692952
 20
217.9950859572995
 30
0.0
 11
416.9467172692895
 21
217.9950859572995
 31
0.0
  0
LINE
  5
227D5
330
1F
100
AcDbEntity
  8
contour
100
AcDbLine
 10
439.1467172692898
 20
228.3950859572999
 30
0.0
 11
459.14671726929
 21
228.3950859572997
 31
0.0
  0
LINE
  5
227D6
330
1F
100
AcDbEntity
  8
contour
100
AcDbLine
 10
439.1467172692898
 20
222.5950859572999
 30
0.0
 11
459.1467172692898
 21
222.5950859572997
 31
0.0
  0
ARC
  5
227D7
330
1F
100
AcDbEntity
  8
contour
100
AcDbCircle
 10
456.1424824468897
 20
226.9450859572997
 30
0.0
 40
3.335854743258986
100
AcDbArc
 50
334.235626028719
 51
25.7643739712808
  0
ARC
  5
227D8
330
1F
100
AcDbEntity
  8
contour
100
AcDbCircle
 10
462.1509520916904
 20
224.0450859572998
 30
0.0
 40
3.335854743258986
100
AcDbArc
 50
154.2356260287191
 51
205.7643739712808
  0
ARC
  5
227D9
330
1F
100
AcDbEntity
  8
contour
100
AcDbCircle
 10
456.1424824468897
 20
224.0450859572993
 30
0.0
 40
3.335854743258986
100
AcDbArc
 50
334.235626028719
 51
25.7643739712808
  0
LINE
  5
227DA
330
1F
100
AcDbEntity
  8
contour
100
AcDbLine
 10
418.7467172692952
 20
232.9950859573004
 30
0.0
 11
418.7467172692952
 21
217.9950859572995
 31
0.0
  0
LINE
  5
227DB
330
1F
100
AcDbEntity
  8
contour
100
AcDbLine
 10
91.94671726928936
 20
237.9950859572999
 30
0.0
 11
91.94671726928936
 21
235.9950859572998
 31
0.0
  0
ARC
  5
227DC
102
{ACAD_REACTORS
330
227E3
330
227ED
102
}
330
1F
100
AcDbEntity
  8
contour
100
AcDbCircle
 10
92.94671726928937
 20
237.9950859572999
 30
0.0
 40
1.0
100
AcDbArc
 50
90.0
 51
180.0
  0
LINE
  5
227DD
330
1F
100
AcDbEntity
  8
contour
100
AcDbLine
 10
94.44671726929005
 20
235.9950859572997
 30
0.0
 11
94.44671726929005
 21
234.4950859572997
 31
0.0
  0
LINE
  5
227DE
330
1F
100
AcDbEntity
  8
contour
100
AcDbLine
 10
94.44671726929005
 20
234.4950859572997
 30
0.0
 11
272.9252472992775
 21
234.4950859572998
 31
0.0
  0
LINE
  5
227DF
330
1F
100
AcDbEntity
  8
contour
100
AcDbLine
 10
275.9252472992776
 20
234.4950859572998
 30
0.0
 11
449.4467172692902
 21
234.4950859572998
 31
0.0
  0
LINE
  5
227E0
330
1F
100
AcDbEntity
  8
contour
100
AcDbLine
 10
449.44671726929
 20
235.9950859572996
 30
0.0
 11
449.4467172692902
 21
234.4950859572998
 31
0.0
  0
DIMENSION
  5
227E1
102
{ACAD_XDICTIONARY
360
227E2
102
}
102
{ACAD_REACTORS
330
227E3
102
}
330
1F
100
AcDbEntity
  8
mark
100
AcDbDimension
  2
*D64
 10
451.9467172692893
 20
259.14534373055
 30
0.0
 11
271.9467172692894
 21
266.89534373055
 31
0.0
 70
    32
  1
560
 71
     5
 42
360.0
  3
Standard
100
AcDbAlignedDimension
 13
91.94671726928936
 23
237.9950859572999
 33
0.0
 14
451.9467172692893
 24
237.9950859572999
 34
0.0
100
AcDbRotatedDimension
  0
DIMENSION
  5
227E4
102
{ACAD_XDICTIONARY
360
227E5
102
}
102
{ACAD_REACTORS
330
227E6
102
}
330
1F
100
AcDbEntity
  8
mark
100
AcDbDimension
  2
*D65
 10
91.94671726928936
 20
180.4953281033093
 30
0.0
 11
104.4467172692893
 21
180.4953281033093
 31
0.0
 70
   160
  1
20
 71
     5
 42
25.0
  3
Standard
100
AcDbAlignedDimension
 13
116.9467172692893
 23
212.9950859572999
 33
0.0
 14
91.94671726928936
 24
235.9950859572997
 34
0.0
100
AcDbRotatedDimension
1001
ACAD_DSTYLE_DIMINSPECT
1070
   396
1000
100%
1070
   395
1000

1070
   394
1070
    33
1070
   393
1070
     0
  0
DIMENSION
  5
227E7
330
1F
100
AcDbEntity
  8
mark
100
AcDbDimension
  2
*D60
 10
116.9467172692893
 20
180.4953281033094
 30
0.0
 11
266.9467172692895
 21
188.2453281033093
 31
0.0
 70
    32
  1
500
 71
     5
 42
300.0000000000002
  3
Standard
100
AcDbAlignedDimension
 13
416.9467172692895
 23
212.9950859572999
 33
0.0
 14
116.9467172692893
 24
212.9950859572999
 34
0.0
100
AcDbRotatedDimension
  0
DIMENSION
  5
227E8
102
{ACAD_XDICTIONARY
360
227E9
102
}
102
{ACAD_REACTORS
330
227EA
102
}
330
1F
100
AcDbEntity
  8
mark
100
AcDbDimension
  2
*D66
 10
451.9467172692893
 20
180.4953281033092
 30
0.0
 11
434.4467172692894
 21
188.2453281033092
 31
0.0
 70
    32
  1
40
 71
     5
 42
34.99999999999977
  3
Standard
100
AcDbAlignedDimension
 13
416.9467172692895
 23
212.9950859572999
 33
0.0
 14
451.9467172692893
 24
235.9950859572996
 34
0.0
100
AcDbRotatedDimension
1001
ACAD_DSTYLE_DIMINSPECT
1070
   396
1000
100%
1070
   395
1000

1070
   394
1070
    33
1070
   393
1070
     0
  0
DIMENSION
  5
227EB
102
{ACAD_XDICTIONARY
360
227EC
102
}
102
{ACAD_REACTORS
330
227ED
102
}
330
1F
100
AcDbEntity
  8
mark
100
AcDbDimension
  2
*D67
 10
66.44728245016363
 20
238.9950859572998
 30
0.0
 11
66.44728245016358
 21
225.2450859572999
 31
0.0
 70
   160
 71
     5
 42
27.5
  3
Standard
100
AcDbAlignedDimension
 13
118.4467172692893
 23
211.4950859572998
 33
0.0
 14
92.94671726928937
 24
238.9950859572998
 34
0.0
 50
90.0
100
AcDbRotatedDimension
  0
LINE
  5
227EE
330
1F
100
AcDbEntity
  8
section
100
AcDbLine
 10
274.6669170500798
 20
240.9950859572998
 30
0.0
 11
266.2265174884995
 21
209.4950859572999
 31
0.0
  0
LINE
  5
227EF
330
1F
100
AcDbEntity
  8
section
100
AcDbLine
 10
277.6669170500797
 20
240.9950859572998
 30
0.0
 11
269.2265174884994
 21
209.4950859572999
 31
0.0
  0
DIMENSION
  5
227F0
330
1F
100
AcDbEntity
  8
mark
100
AcDbDimension
  2
*D61
 10
103.8912609175525
 20
394.8544342310081
 30
0.0
 11
73.19104150103274
 21
436.5148087559129
 31
0.0
 70
    35
  1
12-<>
 71
     5
 42
5.500000000000113
  3
Standard
100
AcDbDiametricDimension
 15
100.002173621026
 25
398.7435215275338
 35
0.0
 40
0.0
1001
ACAD
1000
DSTYLE
1002
{
1070
   288
1070
     1
1002
}
1001
ACAD_DSTYLE_DIMRADIAL_EXTENSION
1070
   387
1070
     1
1070
   388
1040
0.0
1070
   390
1040
0.0
  0
LINE
  5
227F1
330
1F
100
AcDbEntity
  8
contour
100
AcDbLine
 10
567.5507093346547
 20
211.4950859572998
 30
0.0
 11
630.5507093346548
 21
211.4950859572998
 31
0.0
  0
ARC
  5
227F2
330
1F
100
AcDbEntity
  8
contour
100
AcDbCircle
 10
567.5507093346547
 20
212.4950859572998
 30
0.0
 40
1.0
100
AcDbArc
 50
180.0
 51
270.0
  0
LINE
  5
227F3
330
1F
100
AcDbEntity
  8
contour
100
AcDbLine
 10
577.7143988611985
 20
213.9950859572995
 30
0.0
 11
620.3870198081106
 21
213.9950859572995
 31
0.0
  0
LINE
  5
227F4
102
{ACAD_REACTORS
330
22833
102
}
330
1F
100
AcDbEntity
  8
contour
100
AcDbLine
 10
566.5507093346548
 20
212.4950859572998
 30
0.0
 11
566.5507093346548
 21
234.4950859573
 31
0.0
  0
LINE
  5
227F5
330
1F
100
AcDbEntity
  8
contour
100
AcDbLine
 10
569.0507093346548
 20
228.9112844443955
 30
0.0
 11
569.0507093346548
 21
231.9950859573002
 31
0.0
  0
ARC
  5
227F6
330
1F
100
AcDbEntity
  8
contour
100
AcDbCircle
 10
570.0507093346548
 20
231.9950859573002
 30
0.0
 40
1.0
100
AcDbArc
 50
90.0
 51
180.0
  0
LINE
  5
227F7
330
1F
100
AcDbEntity
  8
contour
100
AcDbLine
 10
570.0507093346548
 20
232.9950859573001
 30
0.0
 11
593.5734837596035
 21
232.9950859573002
 31
0.0
  0
LINE
  5
227F8
102
{ACAD_REACTORS
330
22833
102
}
330
1F
100
AcDbEntity
  8
contour
100
AcDbLine
 10
631.5507093346548
 20
234.4950859573001
 30
0.0
 11
631.5507093346548
 21
212.4950859572998
 31
0.0
  0
ARC
  5
227F9
330
1F
100
AcDbEntity
  8
contour
100
AcDbCircle
 10
630.5507093346548
 20
212.4950859572998
 30
0.0
 40
1.0
100
AcDbArc
 50
270.0
 51
0.0
  0
LINE
  5
227FA
330
1F
100
AcDbEntity
  8
contour
100
AcDbLine
 10
629.0507093346548
 20
231.9950859573002
 30
0.0
 11
629.0507093346548
 21
228.9112844443955
 31
0.0
  0
ARC
  5
227FB
330
1F
100
AcDbEntity
  8
contour
100
AcDbCircle
 10
628.0507093346548
 20
231.9950859573002
 30
0.0
 40
1.0
100
AcDbArc
 50
0.0
 51
90.0
  0
CIRCLE
  5
227FC
330
1F
100
AcDbEntity
  8
contour
100
AcDbCircle
 10
573.0507093346548
 20
221.4950859572998
 30
0.0
 40
4.5
  0
ARC
  5
227FD
330
1F
100
AcDbEntity
  8
contour
100
AcDbCircle
 10
573.0507093346548
 20
221.4950859572998
 30
0.0
 40
7.0
100
AcDbArc
 50
305.6590876961329
 51
112.0243128370421
  0
ARC
  5
227FE
330
1F
100
AcDbEntity
  8
contour
100
AcDbCircle
 10
570.0507093346548
 20
228.9112844443955
 30
0.0
 40
1.0
100
AcDbArc
 50
180.0
 51
292.0243128370421
  0
ARC
  5
227FF
330
1F
100
AcDbEntity
  8
contour
100
AcDbCircle
 10
577.7143988611985
 20
214.9950859572995
 30
0.0
 40
1.0
100
AcDbArc
 50
125.6590876961329
 51
270.0
  0
LINE
  5
22800
330
1F
100
AcDbEntity
  8
center
 48
0.3
100
AcDbLine
 10
599.0507093346548
 20
240.9950859572998
 30
0.0
 11
599.0507093346548
 21
209.9950859572998
 31
0.0
  0
CIRCLE
  5
22801
330
1F
100
AcDbEntity
  8
contour
100
AcDbCircle
 10
625.0507093346548
 20
221.4950859572998
 30
0.0
 40
4.5
  0
ARC
  5
22802
330
1F
100
AcDbEntity
  8
contour
100
AcDbCircle
 10
625.0507093346548
 20
221.4950859572998
 30
0.0
 40
7.0
100
AcDbArc
 50
67.97568716295784
 51
234.3409123038671
  0
ARC
  5
22803
330
1F
100
AcDbEntity
  8
contour
100
AcDbCircle
 10
628.0507093346548
 20
228.9112844443955
 30
0.0
 40
1.0
100
AcDbArc
 50
247.9756871629579
 51
0.0000000000016284
  0
ARC
  5
22804
330
1F
100
AcDbEntity
  8
contour
100
AcDbCircle
 10
620.3870198081106
 20
214.9950859572995
 30
0.0
 40
1.0
100
AcDbArc
 50
270.0
 51
54.34091230386703
  0
LINE
  5
22805
330
1F
100
AcDbEntity
  8
center
 48
0.3
100
AcDbLine
 10
589.5507093346548
 20
225.4950859572998
 30
0.0
 11
608.5507093346548
 21
225.4950859572998
 31
0.0
  0
ARC
  5
22806
330
1F
100
AcDbEntity
  8
contour
100
AcDbCircle
 10
599.0507093346548
 20
225.4950859572998
 30
0.0
 40
7.5
100
AcDbArc
 50
130.119166898394
 51
49.88083310160599
  0
ARC
  5
22807
330
1F
100
AcDbEntity
  8
contour
100
AcDbCircle
 10
604.5279349097061
 20
231.9950859573002
 30
0.0
 40
1.0
100
AcDbArc
 50
90.0
 51
229.880833101606
  0
ARC
  5
22808
330
1F
100
AcDbEntity
  8
contour
100
AcDbCircle
 10
593.5734837596035
 20
231.9950859573002
 30
0.0
 40
1.0
100
AcDbArc
 50
310.119166898394
 51
90.0
  0
CIRCLE
  5
22809
330
1F
100
AcDbEntity
  8
contour
100
AcDbCircle
 10
599.0507093346548
 20
225.4950859572998
 30
0.0
 40
4.25
  0
LWPOLYLINE
  5
2280A
330
1F
100
AcDbEntity
  8
contour
100
AcDbPolyline
 90
        2
 70
     0
 43
0.0
 10
598.6080776895289
 20
232.7450859572998
 10
592.9933409797806
 20
229.5034162064974
  0
LWPOLYLINE
  5
2280B
330
1F
100
AcDbEntity
  8
contour
100
AcDbPolyline
 90
        2
 70
     0
 43
0.0
 10
592.5507093346547
 20
228.736755708102
 10
592.5507093346547
 20
222.2534162064974
  0
LWPOLYLINE
  5
2280C
330
1F
100
AcDbEntity
  8
contour
100
AcDbPolyline
 90
        2
 70
     0
 43
0.0
 10
592.9933409797806
 20
221.486755708102
 10
598.6080776895289
 20
218.2450859572998
  0
LWPOLYLINE
  5
2280D
330
1F
100
AcDbEntity
  8
contour
100
AcDbPolyline
 90
        2
 70
     0
 43
0.0
 10
599.4933409797806
 20
218.2450859572998
 10
605.108077689529
 20
221.486755708102
  0
LWPOLYLINE
  5
2280E
330
1F
100
AcDbEntity
  8
contour
100
AcDbPolyline
 90
        2
 70
     0
 43
0.0
 10
605.5507093346548
 20
222.2534162064975
 10
605.5507093346548
 20
228.736755708102
  0
LWPOLYLINE
  5
2280F
330
1F
100
AcDbEntity
  8
contour
100
AcDbPolyline
 90
        2
 70
     0
 43
0.0
 10
605.108077689529
 20
229.5034162064974
 10
599.4933409797806
 20
232.7450859572998
  0
LINE
  5
22810
330
1F
100
AcDbEntity
  8
contour
100
AcDbLine
 10
599.4933409797806
 20
232.7450859572998
 30
0.0
 11
598.6080776895289
 21
232.7450859572998
 31
0.0
  0
LINE
  5
22811
330
1F
100
AcDbEntity
  8
contour
100
AcDbLine
 10
592.9933409797806
 20
229.5034162064974
 30
0.0
 11
592.5507093346547
 21
228.736755708102
 31
0.0
  0
LINE
  5
22812
330
1F
100
AcDbEntity
  8
contour
100
AcDbLine
 10
592.5507093346547
 20
222.2534162064974
 30
0.0
 11
592.9933409797806
 21
221.486755708102
 31
0.0
  0
LINE
  5
22813
330
1F
100
AcDbEntity
  8
contour
100
AcDbLine
 10
605.108077689529
 20
221.486755708102
 30
0.0
 11
605.5507093346548
 21
222.2534162064974
 31
0.0
  0
LINE
  5
22814
330
1F
100
AcDbEntity
  8
contour
100
AcDbLine
 10
605.5507093346548
 20
228.736755708102
 30
0.0
 11
605.108077689529
 21
229.5034162064974
 31
0.0
  0
CIRCLE
  5
22815
330
1F
100
AcDbEntity
  8
contour
100
AcDbCircle
 10
599.0507093346548
 20
225.4950859572998
 30
0.0
 40
6.25
  0
CIRCLE
  5
22816
330
1F
100
AcDbEntity
  8
contour
100
AcDbCircle
 10
599.0507093346548
 20
225.4950859572998
 30
0.0
 40
3.25
  0
ARC
  5
22817
330
1F
100
AcDbEntity
  8
contour
100
AcDbCircle
 10
599.0507093346548
 20
225.4950859572998
 30
0.0
 40
7.249999999999985
100
AcDbArc
 50
93.70844472527098
 51
146.2915552747264
  0
ARC
  5
22818
330
1F
100
AcDbEntity
  8
contour
100
AcDbCircle
 10
599.0507093346548
 20
225.4950859572998
 30
0.0
 40
7.249999999999985
100
AcDbArc
 50
153.7084447252673
 51
206.2915552747327
  0
ARC
  5
22819
330
1F
100
AcDbEntity
  8
contour
100
AcDbCircle
 10
599.0507093346548
 20
225.4950859572998
 30
0.0
 40
7.249999999999985
100
AcDbArc
 50
213.7084447252735
 51
266.291555274729
  0
ARC
  5
2281A
330
1F
100
AcDbEntity
  8
contour
100
AcDbCircle
 10
599.0507093346548
 20
225.4950859572998
 30
0.0
 40
7.249999999999985
100
AcDbArc
 50
333.7084447252672
 51
26.29155527473272
  0
ARC
  5
2281B
330
1F
100
AcDbEntity
  8
contour
100
AcDbCircle
 10
599.0507093346548
 20
225.4950859572998
 30
0.0
 40
7.249999999999985
100
AcDbArc
 50
33.70844472527358
 51
86.29155527472903
  0
LINE
  5
2281C
330
1F
100
AcDbEntity
  8
contour
100
AcDbLine
 10
599.4933409797806
 20
218.2450859572998
 30
0.0
 11
598.6080776895289
 21
218.2450859572998
 31
0.0
  0
ARC
  5
2281D
330
1F
100
AcDbEntity
  8
contour
100
AcDbCircle
 10
599.0507093346548
 20
225.4950859572998
 30
0.0
 40
7.249999999999989
100
AcDbArc
 50
273.708444725271
 51
326.291555274734
  0
CIRCLE
  5
2281E
330
1F
100
AcDbEntity
  8
contour
100
AcDbCircle
 10
573.0507093346548
 20
221.4950859572998
 30
0.0
 40
4.25
  0
LWPOLYLINE
  5
2281F
330
1F
100
AcDbEntity
  8
contour
100
AcDbPolyline
 90
        6
 70
     1
 43
0.0
 10
575.0507093346548
 20
222.649786495679
 10
573.0507093346548
 20
223.8044870340583
 10
571.0507093346548
 20
222.649786495679
 10
571.0507093346548
 20
220.3403854189206
 10
573.0507093346548
 20
219.1856848805413
 10
575.0507093346548
 20
220.3403854189206
  0
CIRCLE
  5
22820
330
1F
100
AcDbEntity
  8
contour
100
AcDbCircle
 10
573.0507093346548
 20
221.4950859572998
 30
0.0
 40
3.730384757729325
  0
CIRCLE
  5
22821
330
1F
100
AcDbEntity
  8
contour
100
AcDbCircle
 10
625.0507093346548
 20
221.4950859572998
 30
0.0
 40
4.25
  0
LWPOLYLINE
  5
22822
330
1F
100
AcDbEntity
  8
contour
100
AcDbPolyline
 90
        6
 70
     1
 43
0.0
 10
627.0507093346548
 20
222.649786495679
 10
625.0507093346548
 20
223.8044870340583
 10
623.0507093346548
 20
222.649786495679
 10
623.0507093346548
 20
220.3403854189206
 10
625.0507093346548
 20
219.1856848805413
 10
627.0507093346548
 20
220.3403854189206
  0
CIRCLE
  5
22823
330
1F
100
AcDbEntity
  8
contour
100
AcDbCircle
 10
625.0507093346548
 20
221.4950859572998
 30
0.0
 40
3.730384757729325
  0
LINE
  5
22824
330
1F
100
AcDbEntity
  8
contour
100
AcDbLine
 10
628.0507093346548
 20
232.9950859573001
 30
0.0
 11
604.5279349097061
 21
232.9950859573002
 31
0.0
  0
LINE
  5
22825
102
{ACAD_REACTORS
330
22839
102
}
330
1F
100
AcDbEntity
  8
contour
100
AcDbLine
 10
554.0507093346548
 20
235.9950859572996
 30
0.0
 11
644.0507093346548
 21
235.9950859572996
 31
0.0
  0
LINE
  5
22826
330
1F
100
AcDbEntity
  8
contour
100
AcDbLine
 10
554.0507093346548
 20
235.9950859572996
 30
0.0
 11
554.0507093346548
 21
237.9950859572998
 31
0.0
  0
ARC
  5
22827
102
{ACAD_REACTORS
330
22830
102
}
330
1F
100
AcDbEntity
  8
contour
100
AcDbCircle
 10
555.0507093346547
 20
237.9950859572998
 30
0.0
 40
1.0
100
AcDbArc
 50
90.0
 51
180.0
  0
LINE
  5
22828
330
1F
100
AcDbEntity
  8
contour
100
AcDbLine
 10
644.0507093346548
 20
235.9950859572996
 30
0.0
 11
644.0507093346548
 21
237.9950859572998
 31
0.0
  0
ARC
  5
22829
102
{ACAD_REACTORS
330
22830
102
}
330
1F
100
AcDbEntity
  8
contour
100
AcDbCircle
 10
643.0507093346548
 20
237.9950859572998
 30
0.0
 40
1.0
100
AcDbArc
 50
0.0
 51
90.0
  0
LINE
  5
2282A
102
{ACAD_REACTORS
330
22836
102
}
330
1F
100
AcDbEntity
  8
contour
100
AcDbLine
 10
555.0507093346547
 20
238.9950859572998
 30
0.0
 11
643.0507093346548
 21
238.9950859572998
 31
0.0
  0
LINE
  5
2282B
330
1F
100
AcDbEntity
  8
contour
100
AcDbLine
 10
555.5507093346547
 20
234.4950859572999
 30
0.0
 11
642.5507093346547
 21
234.4950859573
 31
0.0
  0
LINE
  5
2282C
102
{ACAD_REACTORS
330
22839
102
}
330
1F
100
AcDbEntity
  8
contour
100
AcDbLine
 10
555.5507093346547
 20
235.9950859572996
 30
0.0
 11
555.5507093346547
 21
234.4950859572999
 31
0.0
  0
LINE
  5
2282D
330
1F
100
AcDbEntity
  8
contour
100
AcDbLine
 10
642.5507093346547
 20
235.9950859572997
 30
0.0
 11
642.5507093346547
 21
234.4950859573
 31
0.0
  0
DIMENSION
  5
2282E
102
{ACAD_XDICTIONARY
360
2282F
102
}
102
{ACAD_REACTORS
330
22830
102
}
330
1F
100
AcDbEntity
  8
mark
100
AcDbDimension
  2
*D68
 10
644.0507093346548
 20
259.1453437305499
 30
0.0
 11
599.0507093346548
 21
266.8953437305499
 31
0.0
 70
    32
 71
     5
 42
90.0
  3
Standard
100
AcDbAlignedDimension
 13
554.0507093346548
 23
237.9950859572998
 33
0.0
 14
644.0507093346548
 24
237.9950859572998
 34
0.0
100
AcDbRotatedDimension
  0
DIMENSION
  5
22831
102
{ACAD_XDICTIONARY
360
22832
102
}
102
{ACAD_REACTORS
330
22833
102
}
330
1F
100
AcDbEntity
  8
mark
100
AcDbDimension
  2
*D69
 10
566.5507093346548
 20
183.8703281033092
 30
0.0
 11
599.0507093346548
 21
191.6203281033092
 31
0.0
 70
    32
 71
     5
 42
65.0
  3
Standard
100
AcDbAlignedDimension
 13
631.5507093346548
 23
212.4950859572998
 33
0.0
 14
566.5507093346548
 24
212.4950859572998
 34
0.0
100
AcDbRotatedDimension
  0
DIMENSION
  5
22834
102
{ACAD_XDICTIONARY
360
22835
102
}
102
{ACAD_REACTORS
330
22836
102
}
330
1F
100
AcDbEntity
  8
mark
100
AcDbDimension
  2
*D70
 10
507.3304352475063
 20
238.9950859572998
 30
0.0
 11
499.5804352475063
 21
262.7867526239665
 31
0.0
 70
    32
 71
     5
 42
3.000000000000227
  3
Standard
100
AcDbAlignedDimension
 13
554.0507093346548
 23
235.9950859572996
 33
0.0
 14
555.0507093346547
 24
238.9950859572998
 34
0.0
 50
90.0
100
AcDbRotatedDimension
  0
DIMENSION
  5
22837
102
{ACAD_XDICTIONARY
360
22838
102
}
102
{ACAD_REACTORS
330
22839
102
}
330
1F
100
AcDbEntity
  8
mark
100
AcDbDimension
  2
*D71
 10
538.1967794900222
 20
234.4950859572999
 30
0.0
 11
530.4467794900221
 21
170.7450859573
 31
0.0
 70
    32
  1
防水\U+30D1\U+30C3\U+30AD\U+30F31.5t
 71
     5
 42
1.499999999999658
  3
Standard
100
AcDbAlignedDimension
 13
554.0507093346548
 23
235.9950859572996
 33
0.0
 14
555.5507093346547
 24
234.4950859572999
 34
0.0
 50
90.0
100
AcDbRotatedDimension
1001
ACAD_DSTYLE_DIMINSPECT
1070
   396
1000
100%
1070
   395
1000

1070
   394
1070
    33
1070
   393
1070
     0
  0
MTEXT
  5
2283A
330
1F
100
AcDbEntity
  8
dim
100
AcDbMText
 10
134.9071258630952
 20
62.3425577957424
 30
0.0
 40
4.375
 41
17.73414861073343
 71
     1
 72
     5
  1
{\Ftxt,bigfont|c136;2}
 73
     1
 44
1.0
1001
ACAD
1000
ACAD_MTEXT_COLUMN_INFO_BEGIN
1070
    75
1070
     2
1070
    79
1070
     0
1070
    76
1070
     1
1070
    78
1070
     0
1070
    48
1040
17.73414861073343
1070
    49
1040
30.0
1070
    50
1070
     1
1040
0.0
1000
ACAD_MTEXT_COLUMN_INFO_END
1000
MTEXTBEGIN
1070
    73
1070
     1
1070
    44
1040
1.0
1070
    74
1070
     0
1000
MTEXTEND
  0
MTEXT
  5
2283B
330
1F
100
AcDbEntity
  8
0
100
AcDbMText
 10
257.3034742652185
 20
67.47848564877776
 30
0.0
 40
12.5
 41
0.0
 71
     1
 72
     5
  1
{\Ftxt,bigfont|c136;2016.06.21}
  7
JL
 73
     1
 44
1.0
1001
ACAD
1000
MTEXTBEGIN
1070
    73
1070
     1
1070
    44
1040
1.0
1070
    74
1070
     0
1000
MTEXTEND
  0
LWPOLYLINE
  5
2283E
330
1F
100
AcDbEntity
  8
mark
100
AcDbPolyline
 90
        3
 70
     1
 43
0.0
 10
81.32749437943903
 20
209.8623902386997
 10
74.11061601456868
 20
197.3623902386997
 10
88.54437274430939
 20
197.3623902386997
  0
MTEXT
  5
2283F
330
1F
100
AcDbEntity
  8
dim
100
AcDbMText
 10
80.51013376382025
 20
205.9588709929022
 30
0.0
 40
6.25
 41
0.0
 71
     1
 72
     5
  1
{\Ftxt,bigfont|c136;1}
 73
     1
 44
1.0
1001
ACAD
1000
MTEXTBEGIN
1070
    73
1070
     1
1070
    44
1040
1.0
1070
    74
1070
     0
1000
MTEXTEND
  0
MTEXT
  5
22840
330
1F
100
AcDbEntity
  8
mark
 62
     3
100
AcDbMText
 10
104.4467172692893
 20
202.0648968485523
 30
0.0
 40
8.75
 41
0.0
 71
     5
 72
     1
  1
\A1;2{\Ftxt,bigfont|c136;5}
 73
     1
 44
1.0
1001
ACAD
1000
MTEXTBEGIN
1070
    73
1070
     1
1070
    44
1040
1.0
1070
    74
1070
     0
1000
MTEXTEND
  0
LINE
  5
22841
330
1F
100
AcDbEntity
  8
mark
 62
     1
100
AcDbLine
 10
96.31423405214764
 20
189.5405219159231
 30
0.0
 11
113.3142340521476
 21
189.5405219159231
 31
0.0
  0
LINE
  5
22842
330
1F
100
AcDbEntity
  8
mark
 62
     1
100
AcDbLine
 10
96.31423405214764
 20
186.0618530163781
 30
0.0
 11
113.3142340521476
 21
186.0618530163781
 31
0.0
  0
MTEXT
  5
22843
330
1F
100
AcDbEntity
  8
dim
100
AcDbMText
 10
405.9143292413589
 20
205.4873902386997
 30
0.0
 40
6.25
 41
0.0
 71
     1
 72
     5
  1
{\Ftxt,bigfont|c136;1}
 73
     1
 44
1.0
1001
ACAD
1000
MTEXTBEGIN
1070
    73
1070
     1
1070
    44
1040
1.0
1070
    74
1070
     0
1000
MTEXTEND
  0
MTEXT
  5
22844
330
1F
100
AcDbEntity
  8
mark
 62
     3
100
AcDbMText
 10
434.4467172692896
 20
202.0648968485524
 30
0.0
 40
8.75
 41
0.0
 71
     5
 72
     1
  1
\A1;{\Ftxt,bigfont|c136;35}
 73
     1
 44
1.0
1001
ACAD
1000
MTEXTBEGIN
1070
    73
1070
     1
1070
    44
1040
1.0
1070
    74
1070
     0
1000
MTEXTEND
  0
LINE
  5
22845
330
1F
100
AcDbEntity
  8
mark
 62
     1
100
AcDbLine
 10
426.3142340521478
 20
189.5405219159232
 30
0.0
 11
443.3142340521478
 21
189.5405219159232
 31
0.0
  0
LINE
  5
22846
330
1F
100
AcDbEntity
  8
mark
 62
     1
100
AcDbLine
 10
426.3142340521478
 20
186.0618530163782
 30
0.0
 11
443.3142340521478
 21
186.0618530163782
 31
0.0
  0
LWPOLYLINE
  5
22847
330
1F
100
AcDbEntity
  8
mark
100
AcDbPolyline
 90
        3
 70
     1
 43
0.0
 10
406.5415701563868
 20
209.8623902386997
 10
399.3246917915164
 20
197.3623902386997
 10
413.7584485212571
 20
197.3623902386997
  0
LWPOLYLINE
  5
22848
330
1F
100
AcDbEntity
  8
mark
100
AcDbPolyline
 90
        3
 70
     1
 43
0.0
 10
232.2168795557948
 20
91.25
 10
225.0000011909244
 20
78.75
 10
239.4337579206651
 20
78.75
  0
MTEXT
  5
22849
330
1F
100
AcDbEntity
  8
dim
100
AcDbMText
 10
231.3366486333675
 20
86.875
 30
0.0
 40
6.25
 41
0.0
 71
     1
 72
     5
  1
{\Ftxt,bigfont|c136;1}
 73
     1
 44
1.0
1001
ACAD
1000
MTEXTBEGIN
1070
    73
1070
     1
1070
    44
1040
1.0
1070
    74
1070
     0
1000
MTEXTEND
  0
MTEXT
  5
2284A
102
{ACAD_XDICTIONARY
360
22D97
102
}
330
1F
100
AcDbEntity
  8
dim
100
AcDbMText
 10
244.4337579206649
 20
89.375
 30
0.0
 40
8.75
 41
0.0
 71
     1
 72
     5
  1
{\Ftxt,bigfont|c136;2016.09.02 }\M+190A1\M+19640\M+18CEB\M+18B4C\M+182CC\M+18F43\M+190B3{\Ftxt,bigfont|c136; }\M+197D1
 73
     1
 44
1.0
1001
ACAD
1000
MTEXTBEGIN
1070
    73
1070
     1
1070
    44
1040
1.0
1070
    74
1070
     0
1000
MTEXTEND
  0
CIRCLE
  5
2284B
330
1F
100
AcDbEntity
  8
dim
100
AcDbCircle
 10
401.1053090405207
 20
84.69999999999993
 30
0.0
 40
6.0
  0
LWPOLYLINE
  5
2284C
330
1F
100
AcDbEntity
  8
mark
100
AcDbPolyline
 90
        3
 70
     1
 43
0.0
 10
667.497915886508
 20
18.34654872683521
 10
660.2810375216376
 20
5.846548726835209
 10
674.7147942513784
 20
5.846548726835209
  0
LINE
  5
229FC
330
1F
100
AcDbEntity
  8
contour
100
AcDbLine
 10
619.3770861536538
 20
225.5950859572997
 30
0.0
 11
606.5500426383566
 21
225.5950859572997
 31
0.0
  0
LINE
  5
229FD
330
1F
100
AcDbEntity
  8
contour
100
AcDbLine
 10
591.5747478580285
 20
225.5950859572997
 30
0.0
 11
578.7243325156566
 21
225.5950859572997
 31
0.0
  0
LINE
  5
229FE
330
1F
100
AcDbEntity
  8
contour
100
AcDbLine
 10
618.0514236568167
 20
221.3950859572997
 30
0.0
 11
605.3308367218985
 21
221.3950859572997
 31
0.0
  0
LINE
  5
229FF
330
1F
100
AcDbEntity
  8
contour
100
AcDbLine
 10
592.770581947412
 20
221.3950859572997
 30
0.0
 11
580.0499950124938
 21
221.3950859572997
 31
0.0
  0
LINE
  5
22A00
330
1F
100
AcDbEntity
  8
contour
100
AcDbLine
 10
618.2860955245403
 20
219.6950859572997
 30
0.0
 11
603.8057067058423
 21
219.6950859572997
 31
0.0
  0
LINE
  5
22A01
330
1F
100
AcDbEntity
  8
contour
100
AcDbLine
 10
594.2957119634682
 20
219.6950859572997
 30
0.0
 11
579.8153231447702
 21
219.6950859572997
 31
0.0
  0
LINE
  5
22A02
330
1F
100
AcDbEntity
  8
contour
100
AcDbLine
 10
621.1315257462017
 20
227.2950859572997
 30
0.0
 11
606.3315059943622
 21
227.2950859572997
 31
0.0
  0
LINE
  5
22A03
330
1F
100
AcDbEntity
  8
contour
100
AcDbLine
 10
591.7699126749482
 20
227.2950859572997
 30
0.0
 11
576.9698929231087
 21
227.2950859572997
 31
0.0
  0
LWPOLYLINE
  5
22A04
330
1F
100
AcDbEntity
  8
mark
100
AcDbPolyline
 90
        3
 70
     1
 43
0.0
 10
581.98539622582
 20
209.0793680848573
 10
574.7685178609497
 20
196.5793680848572
 10
589.2022745906904
 20
196.5793680848572
  0
LWPOLYLINE
  5
22A1E
330
1F
100
AcDbEntity
  8
mark
100
AcDbPolyline
 90
        3
 70
     1
 43
0.0
 10
232.2168795557948
 20
107.5
 10
225.0000011909244
 20
95.0
 10
239.4337579206651
 20
95.0
  0
MTEXT
  5
22A1F
330
1F
100
AcDbEntity
  8
dim
100
AcDbMText
 10
230.1335462224615
 20
103.125
 30
0.0
 40
6.25
 41
0.0
 71
     1
 72
     5
  1
{\Ftxt,bigfont|c136;2}
 73
     1
 44
1.0
1001
ACAD
1000
MTEXTBEGIN
1070
    73
1070
     1
1070
    44
1040
1.0
1070
    74
1070
     0
1000
MTEXTEND
  0
MTEXT
  5
22AB9
330
1F
100
AcDbEntity
  8
dim
100
AcDbMText
 10
665.4145825531745
 20
13.97154872683521
 30
0.0
 40
6.25
 41
0.0
 71
     1
 72
     5
  1
{\Ftxt,bigfont|c136;2}
 73
     1
 44
1.0
1001
ACAD
1000
MTEXTBEGIN
1070
    73
1070
     1
1070
    44
1040
1.0
1070
    74
1070
     0
1000
MTEXTEND
  0
MTEXT
  5
22ABA
330
1F
100
AcDbEntity
  8
dim
100
AcDbMText
 10
579.9020628924868
 20
204.7043680848573
 30
0.0
 40
6.25
 41
0.0
 71
     1
 72
     5
  1
{\Ftxt,bigfont|c136;2}
 73
     1
 44
1.0
1001
ACAD
1000
MTEXTBEGIN
1070
    73
1070
     1
1070
    44
1040
1.0
1070
    74
1070
     0
1000
MTEXTEND
  0
MTEXT
  5
22BDB
102
{ACAD_XDICTIONARY
360
22D99
102
}
330
1F
100
AcDbEntity
  8
dim
100
AcDbMText
 10
244.4337579206651
 20
105.625
 30
0.0
 40
8.75
 41
0.0
 71
     1
 72
     5
  1
{\Ftxt,bigfont|c136;2020.01.14 }\M+197BC\M+1925B\M+18375\M+18389\M+18350\M+18362\M+18367\M+182CC\M+18C60\M+195CF\M+18D58{\Ftxt,bigfont|c136; }\M+192C2
 73
     1
 44
1.0
1001
ACAD
1000
MTEXTBEGIN
1070
    73
1070
     1
1070
    44
1040
1.0
1070
    74
1070
     0
1000
MTEXTEND
  0
CIRCLE
  5
22BDD
330
1F
100
AcDbEntity
  8
dim
100
AcDbCircle
 10
439.8920912539981
 20
101.0
 30
0.0
 40
6.25
  0
ENDSEC
  0
SECTION
  2
OBJECTS
  0
DICTIONARY
  5
C
330
0
100
AcDbDictionary
281
     1
  3
ACAD_2007HEADERVARS_RT
350
22D6B
  3
ACAD_ASSOCPERSSUBENTMANAGER
350
152A0
  3
ACAD_CIP_PREVIOUS_PRODUCT_INFO
350
210A6
  3
ACAD_COLOR
350
6B
  3
ACAD_DETAILVIEWSTYLE
350
21097
  3
ACAD_GROUP
350
D
  3
ACAD_LAYOUT
350
1A
  3
ACAD_MATERIAL
350
6A
  3
ACAD_MLEADERSTYLE
350
13317
  3
ACAD_MLINESTYLE
350
17
  3
ACAD_PERSUBENTMGR
350
152A1
  3
ACAD_PLOTSETTINGS
350
19
  3
ACAD_PLOTSTYLENAME
350
E
  3
ACAD_SCALELIST
350
13305
  3
ACAD_SECTIONVIEWSTYLE
350
21095
  3
ACAD_TABLESTYLE
350
7E
  3
ACAD_VISUALSTYLE
350
132EC
  3
AcadDim
350
1070
  3
ACDB_RECOMPOSE_DATA
350
22D69
  3
AcDbVariableDictionary
350
5E
  3
AcmDictionary
350
13372
  3
AEC_PROPERTY_SET_DEFS
350
2145C
  3
AMG
350
13323
  3
AMGSNAPSETTINGS
350
1345C
  3
DWGPROPS
350
22D6A
  0
DICTIONARY
  5
13AFC
330
8
100
AcDbDictionary
280
     1
281
     1
  0
DICTIONARY
  5
86D
330
2
100
AcDbDictionary
280
     1
281
     1
  3
ACAD_LAYERFILTERS
360
8E02
  3
ACAD_LAYERSTATES
360
8B4
  3
ACLYDICTIONARY
360
8E01
  0
DICTIONARY
  5
13AE6
330
10
100
AcDbDictionary
280
     1
281
     1
  3
ADSK_XREC_LAYER_RECONCILED
360
13AE7
  0
DICTIONARY
  5
13AE8
330
112
100
AcDbDictionary
280
     1
281
     1
  3
ADSK_XREC_LAYER_RECONCILED
360
13AE9
  0
DICTIONARY
  5
13AEA
330
114
100
AcDbDictionary
280
     1
281
     1
  3
ADSK_XREC_LAYER_RECONCILED
360
13AEB
  0
DICTIONARY
  5
13AEC
330
8A8
100
AcDbDictionary
280
     1
281
     1
  3
ADSK_XREC_LAYER_RECONCILED
360
13AED
  0
DICTIONARY
  5
13AEE
330
8A9
100
AcDbDictionary
280
     1
281
     1
  3
ADSK_XREC_LAYER_RECONCILED
360
13AEF
  0
DICTIONARY
  5
13AF0
330
8AA
100
AcDbDictionary
280
     1
281
     1
  3
ADSK_XREC_LAYER_RECONCILED
360
13AF1
  0
DICTIONARY
  5
13AF4
330
4693
100
AcDbDictionary
280
     1
281
     1
  3
ADSK_XREC_LAYER_RECONCILED
360
13AF5
  0
DICTIONARY
  5
9D7
330
1F
100
AcDbDictionary
280
     1
281
     1
  3
ACAD_SORTENTS
360
9D8
  0
DICTIONARY
  5
22D9B
330
22D32
100
AcDbDictionary
280
     1
281
     1
  3
ACAD_MTEXT_RT
360
22D9C
  0
DICTIONARY
  5
22D9D
330
22D5C
100
AcDbDictionary
280
     1
281
     1
  3
ACAD_MTEXT_RT
360
22D9E
  0
DICTIONARY
  5
22D7B
330
226C4
100
AcDbDictionary
280
     1
281
     1
  3
ACAD_MTEXT_RT
360
22D7C
  0
DICTIONARY
  5
22D7D
330
226C7
100
AcDbDictionary
280
     1
281
     1
  3
ACAD_MTEXT_RT
360
22D7E
  0
DICTIONARY
  5
22D7F
330
226C9
100
AcDbDictionary
280
     1
281
     1
  3
ACAD_MTEXT_RT
360
22D80
  0
DICTIONARY
  5
22D81
330
226CA
100
AcDbDictionary
280
     1
281
     1
  3
ACAD_MTEXT_RT
360
22D82
  0
DICTIONARY
  5
22D83
330
226CB
100
AcDbDictionary
280
     1
281
     1
  3
ACAD_MTEXT_RT
360
22D84
  0
DICTIONARY
  5
22D85
330
226D4
100
AcDbDictionary
280
     1
281
     1
  3
ACAD_MTEXT_RT
360
22D86
  0
DICTIONARY
  5
22D87
330
226D5
100
AcDbDictionary
280
     1
281
     1
  3
ACAD_MTEXT_RT
360
22D88
  0
DICTIONARY
  5
22D89
330
226D6
100
AcDbDictionary
280
     1
281
     1
  3
ACAD_MTEXT_RT
360
22D8A
  0
DICTIONARY
  5
22D8B
330
226D7
100
AcDbDictionary
280
     1
281
     1
  3
ACAD_MTEXT_RT
360
22D8C
  0
DICTIONARY
  5
22D8D
330
226D8
100
AcDbDictionary
280
     1
281
     1
  3
ACAD_MTEXT_RT
360
22D8E
  0
DICTIONARY
  5
22D65
330
226E8
100
AcDbDictionary
280
     1
281
     1
  3
ACAD_MTEXT_2008_RT
360
22D66
  3
ACAD_MTEXT_RT
360
22D8F
  0
DICTIONARY
  5
22D90
330
226E9
100
AcDbDictionary
280
     1
281
     1
  3
ACAD_MTEXT_RT
360
22D91
  0
DICTIONARY
  5
22D92
330
226EA
100
AcDbDictionary
280
     1
281
     1
  3
ACAD_MTEXT_RT
360
22D93
  0
DICTIONARY
  5
22783
330
22782
100
AcDbDictionary
280
     1
281
     1
  3
ACAD_DIMASSOC
360
22784
  0
DICTIONARY
  5
22787
330
22786
100
AcDbDictionary
280
     1
281
     1
  3
ACAD_DIMASSOC
360
22788
  0
DICTIONARY
  5
22D94
330
22789
100
AcDbDictionary
280
     1
281
     1
  3
ACAD_MTEXT_RT
360
22D95
  0
DICTIONARY
  5
22D67
330
2278C
100
AcDbDictionary
280
     1
281
     1
  3
ACAD_MTEXT_2008_RT
360
22D68
  3
ACAD_MTEXT_RT
360
22D96
  0
DICTIONARY
  5
227E2
330
227E1
100
AcDbDictionary
280
     1
281
     1
  3
ACAD_DIMASSOC
360
227E3
  0
DICTIONARY
  5
227E5
330
227E4
100
AcDbDictionary
280
     1
281
     1
  3
ACAD_DIMASSOC
360
227E6
  0
DICTIONARY
  5
227E9
330
227E8
100
AcDbDictionary
280
     1
281
     1
  3
ACAD_DIMASSOC
360
227EA
  0
DICTIONARY
  5
227EC
330
227EB
100
AcDbDictionary
280
     1
281
     1
  3
ACAD_DIMASSOC
360
227ED
  0
DICTIONARY
  5
2282F
330
2282E
100
AcDbDictionary
280
     1
281
     1
  3
ACAD_DIMASSOC
360
22830
  0
DICTIONARY
  5
22832
330
22831
100
AcDbDictionary
280
     1
281
     1
  3
ACAD_DIMASSOC
360
22833
  0
DICTIONARY
  5
22835
330
22834
100
AcDbDictionary
280
     1
281
     1
  3
ACAD_DIMASSOC
360
22836
  0
DICTIONARY
  5
22838
330
22837
100
AcDbDictionary
280
     1
281
     1
  3
ACAD_DIMASSOC
360
22839
  0
DICTIONARY
  5
22D97
330
2284A
100
AcDbDictionary
280
     1
281
     1
  3
ACAD_MTEXT_RT
360
22D98
  0
DICTIONARY
  5
22D99
330
22BDB
100
AcDbDictionary
280
     1
281
     1
  3
ACAD_MTEXT_RT
360
22D9A
  0
DICTIONARY
  5
22D6B
102
{ACAD_REACTORS
330
C
102
}
330
C
100
AcDbDictionary
281
     1
  3
DIMARCSYM
350
22D6D
  3
DIMFXL
350
22D6C
  3
DIMLTEX1
350
22D6F
  3
DIMLTEX2
350
22D70
  3
DIMLTYPE
350
22D6E
  0
ACDBASSOCPERSSUBENTMANAGER
  5
152A0
102
{ACAD_REACTORS
330
C
102
}
330
C
100
AcDbAssocPersSubentManager
 90
        1
 90
        3
 90
        0
 90
        2
 90
       32
 90
        0
 90
        0
 90
        0
290
     0
  0
XRECORD
  5
210A6
102
{ACAD_REACTORS
330
C
102
}
330
C
100
AcDbXrecord
280
     1
300
AMECH_PP
300
2012
300
AMECH_PP_F_S
  0
DICTIONARY
  5
6B
102
{ACAD_REACTORS
330
C
102
}
330
C
100
AcDbDictionary
281
     1
  0
DICTIONARY
  5
21097
102
{ACAD_REACTORS
330
C
102
}
330
C
100
AcDbDictionary
281
     1
  3
Metric50
350
21098
  0
DICTIONARY
  5
D
102
{ACAD_REACTORS
330
C
102
}
330
C
100
AcDbDictionary
281
     1
  0
DICTIONARY
  5
1A
102
{ACAD_REACTORS
330
C
102
}
330
C
100
AcDbDictionary
281
     1
  3
Model
350
22
  3
布局1
350
D3
  3
布局2
350
D7
1001
ACADSTRINGINFO
1000
MIFCodePage
1070
     5
  0
DICTIONARY
  5
6A
102
{ACAD_REACTORS
330
C
102
}
330
C
100
AcDbDictionary
281
     1
  3
ByBlock
350
132DC
  3
ByLayer
350
132D4
  3
Global
350
132E4
  0
DICTIONARY
  5
13317
102
{ACAD_REACTORS
330
C
102
}
330
C
100
AcDbDictionary
281
     1
  3
Standard
350
13318
  0
DICTIONARY
  5
17
102
{ACAD_REACTORS
330
C
102
}
330
C
100
AcDbDictionary
281
     1
  3
Standard
350
18
  0
ACDBPERSSUBENTMANAGER
  5
152A1
102
{ACAD_REACTORS
330
C
102
}
330
C
100
AcDbPersSubentManager
 90
        2
 90
        0
 90
        2
 90
       32
 90
        0
 90
        0
  0
DICTIONARY
  5
19
102
{ACAD_REACTORS
330
C
102
}
330
C
100
AcDbDictionary
281
     1
  0
ACDBDICTIONARYWDFLT
  5
E
102
{ACAD_REACTORS
330
C
102
}
330
C
100
AcDbDictionary
281
     1
  3
Normal
350
F
100
AcDbDictionaryWithDefault
340
F
  0
DICTIONARY
  5
13305
102
{ACAD_REACTORS
330
C
102
}
330
C
100
AcDbDictionary
281
     1
  3
A0
350
13306
  3
A1
350
13307
  3
A2
350
13308
  3
A3
350
13309
  3
A4
350
1330A
  3
A5
350
1330B
  3
A6
350
1330C
  3
A7
350
1330D
  3
A8
350
1330E
  3
A9
350
1330F
  3
B0
350
13310
  3
B1
350
13311
  3
B2
350
13312
  3
B3
350
13313
  3
B4
350
13314
  3
B5
350
13315
  3
B6
350
13316
  0
DICTIONARY
  5
21095
102
{ACAD_REACTORS
330
C
102
}
330
C
100
AcDbDictionary
281
     1
  3
Metric50
350
21096
  0
DICTIONARY
  5
7E
102
{ACAD_REACTORS
330
C
102
}
330
C
100
AcDbDictionary
281
     1
  3
Standard
350
7F
  0
DICTIONARY
  5
132EC
102
{ACAD_REACTORS
330
C
102
}
330
C
100
AcDbDictionary
281
     1
  3
2dWireframe
350
132F2
  3
Basic
350
132F1
  3
Brighten
350
132F8
  3
ColorChange
350
132FC
  3
Conceptual
350
132F5
  3
Dim
350
132F7
  3
EdgeColorOff
350
13304
  3
Facepattern
350
132FB
  3
Flat
350
132ED
  3
FlatWithEdges
350
132EE
  3
Gouraud
350
132EF
  3
GouraudWithEdges
350
132F0
  3
Hidden
350
132F4
  3
JitterOff
350
13302
  3
Linepattern
350
132FA
  3
OverhangOff
350
13303
  3
Realistic
350
132F6
  3
Shaded
350
13301
  3
Shaded with edges
350
13300
  3
Shades of Gray
350
132FD
  3
Sketchy
350
132FE
  3
Thicken
350
132F9
  3
Wireframe
350
132F3
  3
X-Ray
350
132FF
  0
XRECORD
  5
1070
102
{ACAD_REACTORS
330
C
102
}
330
C
100
AcDbXrecord
280
     1
 90
   990106
  3

 60
     0
 61
     0
 62
     1
 63
     3
 64
     0
 65
     0
 66
     0
 67
     3
 68
     1
 69
     0
 70
     0
 71
     0
 72
     0
 40
0.0
170
     0
340
1AA3A
  0
XRECORD
  5
22D69
102
{ACAD_REACTORS
330
C
102
}
330
C
100
AcDbXrecord
280
     1
 90
        1
330
7F
330
226E8
330
22789
330
2278C
330
2283A
  0
DICTIONARY
  5
5E
102
{ACAD_REACTORS
330
C
102
}
330
C
100
AcDbDictionary
281
     1
  3
CANNOSCALE
350
13B60
  3
CMLEADERSTYLE
350
13B5F
  3
CTABLESTYLE
350
84
  3
CVIEWDETAILSTYLE
350
21502
  3
CVIEWSECTIONSTYLE
350
21503
  3
DIMASSOC
350
5F
  3
HIDETEXT
350
63
  3
INDEXCTL
350
13B62
  3
SORTENTS
350
13B61
  3
XCLIPFRAME
350
22D63
  0
DICTIONARY
  5
13372
102
{ACAD_REACTORS
330
C
102
}
330
C
100
AcDbDictionary
281
     1
  3
AcmStdDictionary
350
1337D
  0
DICTIONARY
  5
2145C
102
{ACAD_REACTORS
330
C
102
}
330
C
100
AcDbDictionary
281
     1
  0
DICTIONARY
  5
13323
102
{ACAD_REACTORS
330
C
102
}
330
C
100
AcDbDictionary
281
     1
  0
DICTIONARY
  5
1345C
102
{ACAD_REACTORS
330
C
102
}
330
C
100
AcDbDictionary
281
     1
  0
XRECORD
  5
22D6A
102
{ACAD_REACTORS
330
C
102
}
330
C
100
AcDbXrecord
280
     1
  1
DWGPROPS COOKIE
  2

  3

  4

  6

  7

  8
G570
  9

300
=
301
=
302
=
303
=
304
=
305
=
306
=
307
=
308
=
309
=
 40
3.695910104166666
 41
2453952.586786748
 42
2458864.571925011
  1

 90
        0
  0
DICTIONARY
  5
8E02
102
{ACAD_REACTORS
330
86D
102
}
330
86D
100
AcDbDictionary
281
     1
  0
DICTIONARY
  5
8B4
102
{ACAD_REACTORS
330
86D
102
}
330
86D
100
AcDbDictionary
281
     1
  0
DICTIONARY
  5
8E01
102
{ACAD_REACTORS
330
86D
102
}
330
86D
100
AcDbDictionary
281
     1
1001
ACAD
1000
<All
  0
XRECORD
  5
13AE7
102
{ACAD_REACTORS
330
13AE6
102
}
330
13AE6
100
AcDbXrecord
280
     1
290
     1
  0
XRECORD
  5
13AE9
102
{ACAD_REACTORS
330
13AE8
102
}
330
13AE8
100
AcDbXrecord
280
     1
290
     1
  0
XRECORD
  5
13AEB
102
{ACAD_REACTORS
330
13AEA
102
}
330
13AEA
100
AcDbXrecord
280
     1
290
     1
  0
XRECORD
  5
13AED
102
{ACAD_REACTORS
330
13AEC
102
}
330
13AEC
100
AcDbXrecord
280
     1
290
     1
  0
XRECORD
  5
13AEF
102
{ACAD_REACTORS
330
13AEE
102
}
330
13AEE
100
AcDbXrecord
280
     1
290
     1
  0
XRECORD
  5
13AF1
102
{ACAD_REACTORS
330
13AF0
102
}
330
13AF0
100
AcDbXrecord
280
     1
290
     1
  0
XRECORD
  5
13AF5
102
{ACAD_REACTORS
330
13AF4
102
}
330
13AF4
100
AcDbXrecord
280
     1
290
     1
  0
SORTENTSTABLE
  5
9D8
102
{ACAD_REACTORS
330
9D7
102
}
330
9D7
100
AcDbSortentsTable
330
1F
331
1AA3A
  5
1ABE8
  0
XRECORD
  5
22D9C
102
{ACAD_REACTORS
330
22D9B
102
}
330
22D9B
100
AcDbXrecord
280
     1
 40
8344.0
  1
\A1;12-\U+22055.5
  0
XRECORD
  5
22D9E
102
{ACAD_REACTORS
330
22D9D
102
}
330
22D9D
100
AcDbXrecord
280
     1
 40
95685.0
  1
\A1;防水\U+30D1\U+30C3\U+30AD\U+30F31.5t
  0
XRECORD
  5
22D7C
102
{ACAD_REACTORS
330
22D7B
102
}
330
22D7B
100
AcDbXrecord
280
     1
 40
637538.0
  1
{\Ftxt,bigfont|c128;林\Ftxt,bigfont|c136; \Ftxt,bigfont|c128;\U+5F66\Ftxt,bigfont|c136; \Ftxt,bigfont|c128;旭}
  0
XRECORD
  5
22D7E
102
{ACAD_REACTORS
330
22D7D
102
}
330
22D7D
100
AcDbXrecord
280
     1
 40
160710.0
  1
{\Ftxt,bigfont|c128;日機株式\U+4F1A社}
  0
XRECORD
  5
22D80
102
{ACAD_REACTORS
330
22D7F
102
}
330
22D7F
100
AcDbXrecord
280
     1
 40
70077.0
  1
\Ftxt.shx,bigfont.shx|c128;製 \U+56F3
  0
XRECORD
  5
22D82
102
{ACAD_REACTORS
330
22D81
102
}
330
22D81
100
AcDbXrecord
280
     1
 40
69783.0
  1
\Ftxt.shx,bigfont.shx|c128;日 付
  0
XRECORD
  5
22D84
102
{ACAD_REACTORS
330
22D83
102
}
330
22D83
100
AcDbXrecord
280
     1
 40
70506.0
  1
\Ftxt.shx,bigfont.shx|c128;\U+691C \U+56F3
  0
XRECORD
  5
22D86
102
{ACAD_REACTORS
330
22D85
102
}
330
22D85
100
AcDbXrecord
280
     1
 40
71889.0
  1
\Ftxt.shx,bigfont.shx|c128;品  名
  0
XRECORD
  5
22D88
102
{ACAD_REACTORS
330
22D87
102
}
330
22D87
100
AcDbXrecord
280
     1
 40
69669.0
  1
\Ftxt.shx,bigfont.shx|c128;承 認
  0
XRECORD
  5
22D8A
102
{ACAD_REACTORS
330
22D89
102
}
330
22D89
100
AcDbXrecord
280
     1
 40
70369.0
  1
\Ftxt.shx,bigfont.shx|c128;尺 度
  0
XRECORD
  5
22D8C
102
{ACAD_REACTORS
330
22D8B
102
}
330
22D8B
100
AcDbXrecord
280
     1
 40
134077.0
  1
\Ftxt.shx,bigfont.shx|c128;\U+56F3  面  番  \U+53F7
  0
XRECORD
  5
22D8E
102
{ACAD_REACTORS
330
22D8D
102
}
330
22D8D
100
AcDbXrecord
280
     1
 40
72032.0
  1
\Ftxt.shx,bigfont.shx|c128;型  番
  0
XRECORD
  5
22D66
102
{ACAD_REACTORS
330
22D65
102
}
330
22D65
100
AcDbXrecord
280
     1
 40
320624080.0
  1
納入仕\U+69D8:\P{\H0.7x;1.入力電源:DC24V\P2.消費電力:\Ftxt,bigfont|c136;20\Ftxt,bigfont|c128;W\P3\Ftxt,bigfont|c136;.\Ftxt,bigfont|c128;防水規格:IP67\P\Ftxt,bigfont|c136;4.\Ftxt,bigfont|c128;電源部\Ftxt,bigfont|c136;:\Ftxt,bigfont|c128;定電流回路\P\Ftxt,bigfont|c136;5\Ftxt,bigfo
  1
nt|c128;.\U+30B1\U+2015\U+30D6\U+30EB:\Ftxt,bigfont|c136;VCTF0.5mmx2C 3M\Ftxt,bigfont|c128;附\U+5C5E\Ftxt,bigfont|c136;\P6.M5x10L\Ftxt,bigfont|c128;取付\U+3051皿頭六角穴\U+306D\U+3058\Ftxt,bigfont|c136;\P\pxql;  (\A1;\Ftxt,bigfont|c128;\C3;\U+9ED2色\A0;\C256;\U+30B9\U+30C6\U+30F3\U+30EC\U+30B9\Ftxt,bigfont|c136;),O\Ftxt,bigfont|c128;\U+30EA\U+30F3\U+30B0\Ftxt
  1
,bigfont|c136;12\Ftxt,bigfont|c128;組付\U+5C5E}
  0
XRECORD
  5
22D8F
102
{ACAD_REACTORS
330
22D65
102
}
330
22D65
100
AcDbXrecord
280
     1
 40
30587293.0
  1
納入仕\U+69D8:\P{\H0.7x;1.入力電源:DC24V\P2.消費電力:\Ftxt,bigfont|c136;20\Ftxt,bigfont|c128;W\P3\Ftxt,bigfont|c136;.\Ftxt,bigfont|c128;防水規格:IP67\P\Ftxt,bigfont|c136;4.\Ftxt,bigfont|c128;電源部\Ftxt,bigfont|c136;:\Ftxt,bigfont|c128;定電流回路\P\Ftxt,bigfont|c136;5\Ftxt,bigfo
  1
nt|c128;.\U+30B1\U+2015\U+30D6\U+30EB:\Ftxt,bigfont|c136;VCTF0.5mmx2C 3M\Ftxt,bigfont|c128;附\U+5C5E\Ftxt,bigfont|c136;\P6.M5x10L\Ftxt,bigfont|c128;取付\U+3051皿頭六角穴\U+306D\U+3058\Ftxt,bigfont|c136;\P  (\A1;\Ftxt,bigfont|c128;\C3;\U+9ED2色\A0;\C256;\U+30B9\U+30C6\U+30F3\U+30EC\U+30B9\Ftxt,bigfont|c136;),O\Ftxt,bigfont|c128;\U+30EA\U+30F3\U+30B0\Ftxt,bigfo
  1
nt|c136;12\Ftxt,bigfont|c128;組付\U+5C5E}
  0
XRECORD
  5
22D91
102
{ACAD_REACTORS
330
22D90
102
}
330
22D90
100
AcDbXrecord
280
     1
 40
68955.0
  1
\Ftxt.shx,bigfont.shx|c128;\U+5909更
  0
XRECORD
  5
22D93
102
{ACAD_REACTORS
330
22D92
102
}
330
22D92
100
AcDbXrecord
280
     1
 40
74264.0
  1
{\Ftxt,bigfont|c128;江 武 崇}
  0
DIMASSOC
  5
22784
102
{ACAD_REACTORS
330
22783
102
}
330
22783
100
AcDbDimAssoc
330
22782
 90
        3
 70
     0
 71
     0
  1
AcDbOsnapPointRef
 72
     1
331
22729
 73
     2
 91
        0
 40
1.0
 10
0.0
 20
0.0
 30
2.000000000000000E+50
 75
     0
  1
AcDbOsnapPointRef
 72
     8
331
22736
 73
     2
 91
        0
 40
1.0
 10
0.0
 20
0.0
 30
0.0
 75
     1
  1
AcDbOsnapPointRef
 72
     1
331
22729
 73
     2
 91
        0
 40
1.0
 10
0.0
 20
0.0
 30
2.000000000000000E+50
 75
     0
  0
DIMASSOC
  5
22788
102
{ACAD_REACTORS
330
22787
102
}
330
22787
100
AcDbDimAssoc
330
22786
 90
        3
 70
     0
 71
     0
  1
AcDbOsnapPointRef
 72
    13
331
22728
 73
     2
 91
        0
 40
0.0
 10
0.0
 20
0.0
 30
2.000000000000000E+50
 75
     0
  1
AcDbOsnapPointRef
 72
    13
331
22724
 73
     2
 91
        0
 40
0.0
 10
0.0
 20
0.0
 30
2.000000000000000E+50
 75
     0
  0
XRECORD
  5
22D95
102
{ACAD_REACTORS
330
22D94
102
}
330
22D94
100
AcDbXrecord
280
     1
 40
2515885.0
  1
{\Ftxt,bigfont|c136;1.}極性\U+30B7-\U+30EB\P{\Ftxt,bigfont|c136;        }入力電\U+5727{\Ftxt,bigfont|c136;DC24V\P+}白{\Ftxt,bigfont|c136;/-}\U+9ED2{\Ftxt,bigfont|c136;\P    2.}熱\U+53CE縮\U+30C1\U+30E5-\U+30D6
  0
XRECORD
  5
22D68
102
{ACAD_REACTORS
330
22D67
102
}
330
22D67
100
AcDbXrecord
280
     1
 40
23551098.0
  1
\A1;\pxql;{\Ftxt,bigfont|c136;M3\A0;\Ftxt,bigfont|c128;\C256;皿頭六角穴\U+306D\U+3058\Ftxt,bigfont|c136;\P}\U+9ED2色{\A0;\C256;\U+30B9\U+30C6\U+30F3\U+30EC\U+30B9}
  0
XRECORD
  5
22D96
102
{ACAD_REACTORS
330
22D67
102
}
330
22D67
100
AcDbXrecord
280
     1
 40
1373680.0
  1
\A1;{\Ftxt,bigfont|c136;M3\A0;\Ftxt,bigfont|c128;\C256;皿頭六角穴\U+306D\U+3058\Ftxt,bigfont|c136;\P}\U+9ED2色{\A0;\C256;\U+30B9\U+30C6\U+30F3\U+30EC\U+30B9}
  0
DIMASSOC
  5
227E3
102
{ACAD_REACTORS
330
227E2
102
}
330
227E2
100
AcDbDimAssoc
330
227E1
 90
        3
 70
     0
 71
     0
  1
AcDbOsnapPointRef
 72
     1
331
227DC
 73
     2
 91
        0
 40
3.141592653589793
 10
0.0
 20
0.0
 30
2.000000000000000E+50
 75
     0
  1
AcDbOsnapPointRef
 72
     1
331
2279B
 73
     2
 91
        0
 40
1.0
 10
0.0
 20
0.0
 30
2.000000000000000E+50
 75
     0
  0
DIMASSOC
  5
227E6
102
{ACAD_REACTORS
330
227E5
102
}
330
227E5
100
AcDbDimAssoc
330
227E4
 90
        3
 70
     0
 71
     0
  1
AcDbOsnapPointRef
 72
     1
331
227A2
 73
     2
 91
        0
 40
1.0
 10
0.0
 20
0.0
 30
2.000000000000000E+50
 75
     0
  1
AcDbOsnapPointRef
 72
    13
331
22794
 73
     2
 91
        0
 40
0.0
 10
0.0
 20
0.0
 30
2.000000000000000E+50
 75
     0
  0
DIMASSOC
  5
227EA
102
{ACAD_REACTORS
330
227E9
102
}
330
227E9
100
AcDbDimAssoc
330
227E8
 90
        1
 70
     0
 71
     0
  1
AcDbOsnapPointRef
 72
     6
331
2279D
 73
     2
 91
        0
 40
0.9999999999999985
 10
0.0
 20
0.0
 30
0.0
332
2279E
 74
     2
 92
        0
 75
     0
  0
DIMASSOC
  5
227ED
102
{ACAD_REACTORS
330
227EC
102
}
330
227EC
100
AcDbDimAssoc
330
227EB
 90
        3
 70
     0
 71
     0
  1
AcDbOsnapPointRef
 72
     1
331
227A0
 73
     2
 91
        0
 40
4.712388980384689
 10
0.0
 20
0.0
 30
2.000000000000000E+50
 75
     0
  1
AcDbOsnapPointRef
 72
    13
331
227DC
 73
     2
 91
        0
 40
1.570796326794896
 10
0.0
 20
0.0
 30
2.000000000000000E+50
 75
     0
  0
DIMASSOC
  5
22830
102
{ACAD_REACTORS
330
2282F
102
}
330
2282F
100
AcDbDimAssoc
330
2282E
 90
        3
 70
     0
 71
     0
  1
AcDbOsnapPointRef
 72
     1
331
22827
 73
     2
 91
        0
 40
3.141592653589793
 10
0.0
 20
0.0
 30
2.000000000000000E+50
 75
     0
  1
AcDbOsnapPointRef
 72
    13
331
22829
 73
     2
 91
        0
 40
0.0
 10
0.0
 20
0.0
 30
2.000000000000000E+50
 75
     0
  0
DIMASSOC
  5
22833
102
{ACAD_REACTORS
330
22832
102
}
330
22832
100
AcDbDimAssoc
330
22831
 90
        3
 70
     0
 71
     0
  1
AcDbOsnapPointRef
 72
     1
331
227F8
 73
     2
 91
        0
 40
1.0
 10
0.0
 20
0.0
 30
2.000000000000000E+50
 75
     0
  1
AcDbOsnapPointRef
 72
    13
331
227F4
 73
     2
 91
        0
 40
0.0
 10
0.0
 20
0.0
 30
2.000000000000000E+50
 75
     0
  0
DIMASSOC
  5
22836
102
{ACAD_REACTORS
330
22835
102
}
330
22835
100
AcDbDimAssoc
330
22834
 90
        2
 70
     0
 71
     0
  1
AcDbOsnapPointRef
 72
    13
331
2282A
 73
     2
 91
        0
 40
0.0
 10
0.0
 20
0.0
 30
2.000000000000000E+50
 75
     0
  0
DIMASSOC
  5
22839
102
{ACAD_REACTORS
330
22838
102
}
330
22838
100
AcDbDimAssoc
330
22837
 90
        3
 70
     0
 71
     0
  1
AcDbOsnapPointRef
 72
    13
331
22825
 73
     2
 91
        0
 40
0.0
 10
0.0
 20
0.0
 30
2.000000000000000E+50
 75
     0
  1
AcDbOsnapPointRef
 72
     1
331
2282C
 73
     2
 91
        0
 40
1.0
 10
0.0
 20
0.0
 30
2.000000000000000E+50
 75
     0
  0
XRECORD
  5
22D98
102
{ACAD_REACTORS
330
22D97
102
}
330
22D97
100
AcDbXrecord
280
     1
 40
498983.0
  1
{\Ftxt,bigfont|c136;2016.09.02 }寸法誤記\U+306E修正{\Ftxt,bigfont|c136; }林
  0
XRECORD
  5
22D9A
102
{ACAD_REACTORS
330
22D99
102
}
330
22D99
100
AcDbXrecord
280
     1
 40
779497.0
  1
{\Ftxt,bigfont|c136;2020.01.14 }\U+4E21端\U+30D6\U+30E9\U+30B1\U+30C3\U+30C8\U+306E形\U+5909更{\Ftxt,bigfont|c136; }陳
  0
XRECORD
  5
22D6D
102
{ACAD_REACTORS
330
22D6B
102
}
330
22D6B
100
AcDbXrecord
280
     1
 70
     1
  0
XRECORD
  5
22D6C
102
{ACAD_REACTORS
330
22D6B
102
}
330
22D6B
100
AcDbXrecord
280
     1
 40
0.18
  0
XRECORD
  5
22D6F
102
{ACAD_REACTORS
330
22D6B
102
}
330
22D6B
100
AcDbXrecord
280
     1
340
14
  0
XRECORD
  5
22D70
102
{ACAD_REACTORS
330
22D6B
102
}
330
22D6B
100
AcDbXrecord
280
     1
340
14
  0
XRECORD
  5
22D6E
102
{ACAD_REACTORS
330
22D6B
102
}
330
22D6B
100
AcDbXrecord
280
     1
340
14
  0
ACAD_PROXY_OBJECT
  5
21098
102
{ACAD_REACTORS
330
21097
102
}
330
21097
100
AcDbProxyObject
 90
      499
 91
      584
 95
   983063
 70
     0
 93
      893
310
9094D6574726963353000481E0000000000000A20500E0000000000000A20233E0000000000000A20400000000000017202029C129E2E20B1AB30B9102B34B2BBA232BA30B4B624B21F129014129E2E20B1AB30B9102B34B2BBA9B1B0B632902E33101112B9B7111F129480233A33807
340
11
340
0
340
16
340
11
340
16
340
16
 94
        0
1001
ACAD
1000
AcRTDxfName
1000
ACDBDETAILVIEWSTYLE
1000
AcRTDxfName
1000
ACDBDETAILVIEWSTYLE
1000
AcRTDxfName
1000
ACDBDETAILVIEWSTYLE
1000
AcRTDxfName
1000
ACDBDETAILVIEWSTYLE
1000
AcRTDxfName
1000
ACDBDETAILVIEWSTYLE
1000
AcRTDxfName
1000
ACDBDETAILVIEWSTYLE
1000
AcRTDxfName
1000
ACDBDETAILVIEWSTYLE
1000
AcRTDxfName
1000
ACDBDETAILVIEWSTYLE
  0
LAYOUT
  5
22
102
{ACAD_XDICTIONARY
360
22D71
102
}
102
{ACAD_REACTORS
330
1A
102
}
330
1A
100
AcDbPlotSettings
  1

  2
Ricoh Aficio 2022 PCL6
  4
A4
  6

 40
5.027082920074462
 41
5.069427490234375
 42
5.027069091796875
 43
5.027069091796875
 44
209.9733276367187
 45
296.9683227539062
 46
4.959587812423663
 47
3.435913085937443
 48
700.0000000000002
 49
-0.0000000000001895
140
1400.0
141
475.0
142
1.0
143
2.5
 70
 11940
 72
     1
 73
     1
 74
     4
  7
LIN.ctb
 75
     0
147
0.4220178397212708
148
-700.0000000000002
149
0.0000000000001895
100
AcDbLayout
  1
Model
 70
     1
 71
     0
 10
0.0
 20
0.0
 11
12.0
 21
9.0
 12
0.0
 22
0.0
 32
0.0
 14
0.0
 24
0.0
 34
0.0
 15
0.0
 25
0.0
 35
0.0
146
0.0
 13
0.0
 23
0.0
 33
0.0
 16
1.0
 26
0.0
 36
0.0
 17
0.0
 27
1.0
 37
0.0
 76
     0
330
1F
331
132D2
1001
ACAD_PSEXT
1000
Ricoh Aficio 2022 PCL6
1000
Ricoh Aficio 2022 PCL6
1000
192.168.1.125
1000

1070
     0
  0
LAYOUT
  5
D3
102
{ACAD_XDICTIONARY
360
22D74
102
}
102
{ACAD_REACTORS
330
1A
102
}
330
1A
100
AcDbPlotSettings
  1

  2
C:\Documents and Settings\basas\Application Data\Autodesk\AutoCAD 2005\R16.1\enu\plotters\Default Windows System Printer.pc3
  4

  6

 40
0.0
 41
0.0
 42
0.0
 43
0.0
 44
0.0
 45
0.0
 46
0.0
 47
0.0
 48
0.0
 49
0.0
140
0.0
141
0.0
142
1.0
143
1.0
 70
   688
 72
     0
 73
     0
 74
     5
  7
LIN.ctb
 75
    16
147
1.0
148
0.0
149
0.0
100
AcDbLayout
  1
布局1
 70
     1
 71
     1
 10
0.0
 20
0.0
 11
12.0
 21
9.0
 12
0.0
 22
0.0
 32
0.0
 14
0.0
 24
0.0
 34
0.0
 15
0.0
 25
0.0
 35
0.0
146
0.0
 13
0.0
 23
0.0
 33
0.0
 16
1.0
 26
0.0
 36
0.0
 17
0.0
 27
1.0
 37
0.0
 76
     0
330
D2
1001
ACADSTRINGINFO
1000
MIFCodePage
1070
     5
  0
LAYOUT
  5
D7
102
{ACAD_XDICTIONARY
360
22D76
102
}
102
{ACAD_REACTORS
330
1A
102
}
330
1A
100
AcDbPlotSettings
  1

  2
C:\Documents and Settings\basas\Application Data\Autodesk\AutoCAD 2005\R16.1\enu\plotters\Default Windows System Printer.pc3
  4

  6

 40
0.0
 41
0.0
 42
0.0
 43
0.0
 44
0.0
 45
0.0
 46
0.0
 47
0.0
 48
0.0
 49
0.0
140
0.0
141
0.0
142
1.0
143
1.0
 70
   688
 72
     0
 73
     0
 74
     5
  7
LIN.ctb
 75
    16
147
1.0
148
0.0
149
0.0
100
AcDbLayout
  1
布局2
 70
     1
 71
     2
 10
0.0
 20
0.0
 11
12.0
 21
9.0
 12
0.0
 22
0.0
 32
0.0
 14
0.0
 24
0.0
 34
0.0
 15
0.0
 25
0.0
 35
0.0
146
0.0
 13
0.0
 23
0.0
 33
0.0
 16
1.0
 26
0.0
 36
0.0
 17
0.0
 27
1.0
 37
0.0
 76
     0
330
D6
1001
ACADSTRINGINFO
1000
MIFCodePage
1070
     5
  0
MATERIAL
  5
132DC
102
{ACAD_XDICTIONARY
360
132DD
102
}
102
{ACAD_REACTORS
330
6A
102
}
330
6A
100
AcDbMaterial
  1
ByBlock
 72
     0
 43
0.0008202099737533
 43
0.0
 43
0.0
 43
0.0
 43
0.0
 43
0.0008202099737533
 43
0.0
 43
0.0
 43
0.0
 43
0.0
 43
1.0
 43
0.0
 43
0.0
 43
0.0
 43
0.0
 43
1.0
 77
     0
 47
0.0008202099737533
 47
0.0
 47
0.0
 47
0.0
 47
0.0
 47
0.0008202099737533
 47
0.0
 47
0.0
 47
0.0
 47
0.0
 47
1.0
 47
0.0
 47
0.0
 47
0.0
 47
0.0
 47
1.0
171
     0
 49
0.0008202099737533
 49
0.0
 49
0.0
 49
0.0
 49
0.0
 49
0.0008202099737533
 49
0.0
 49
0.0
 49
0.0
 49
0.0
 49
1.0
 49
0.0
 49
0.0
 49
0.0
 49
0.0
 49
1.0
175
     0
142
0.0008202099737533
142
0.0
142
0.0
142
0.0
142
0.0
142
0.0008202099737533
142
0.0
142
0.0
142
0.0
142
0.0
142
1.0
142
0.0
142
0.0
142
0.0
142
0.0
142
1.0
179
     0
144
0.0008202099737533
144
0.0
144
0.0
144
0.0
144
0.0
144
0.0008202099737533
144
0.0
144
0.0
144
0.0
144
0.0
144
1.0
144
0.0
144
0.0
144
0.0
144
0.0
144
1.0
147
0.0008202099737533
147
0.0
147
0.0
147
0.0
147
0.0
147
0.0008202099737533
147
0.0
147
0.0
147
0.0
147
0.0
147
1.0
147
0.0
147
0.0
147
0.0
147
0.0
147
1.0
  0
MATERIAL
  5
132D4
102
{ACAD_XDICTIONARY
360
132D5
102
}
102
{ACAD_REACTORS
330
6A
102
}
330
6A
100
AcDbMaterial
  1
ByLayer
 72
     0
 43
0.0008202099737533
 43
0.0
 43
0.0
 43
0.0
 43
0.0
 43
0.0008202099737533
 43
0.0
 43
0.0
 43
0.0
 43
0.0
 43
1.0
 43
0.0
 43
0.0
 43
0.0
 43
0.0
 43
1.0
 77
     0
 47
0.0008202099737533
 47
0.0
 47
0.0
 47
0.0
 47
0.0
 47
0.0008202099737533
 47
0.0
 47
0.0
 47
0.0
 47
0.0
 47
1.0
 47
0.0
 47
0.0
 47
0.0
 47
0.0
 47
1.0
171
     0
 49
0.0008202099737533
 49
0.0
 49
0.0
 49
0.0
 49
0.0
 49
0.0008202099737533
 49
0.0
 49
0.0
 49
0.0
 49
0.0
 49
1.0
 49
0.0
 49
0.0
 49
0.0
 49
0.0
 49
1.0
175
     0
142
0.0008202099737533
142
0.0
142
0.0
142
0.0
142
0.0
142
0.0008202099737533
142
0.0
142
0.0
142
0.0
142
0.0
142
1.0
142
0.0
142
0.0
142
0.0
142
0.0
142
1.0
179
     0
144
0.0008202099737533
144
0.0
144
0.0
144
0.0
144
0.0
144
0.0008202099737533
144
0.0
144
0.0
144
0.0
144
0.0
144
1.0
144
0.0
144
0.0
144
0.0
144
0.0
144
1.0
147
0.0008202099737533
147
0.0
147
0.0
147
0.0
147
0.0
147
0.0008202099737533
147
0.0
147
0.0
147
0.0
147
0.0
147
1.0
147
0.0
147
0.0
147
0.0
147
0.0
147
1.0
  0
MATERIAL
  5
132E4
102
{ACAD_XDICTIONARY
360
132E5
102
}
102
{ACAD_REACTORS
330
6A
102
}
330
6A
100
AcDbMaterial
  1
Global
 72
     0
 43
0.0008202099737533
 43
0.0
 43
0.0
 43
0.0
 43
0.0
 43
0.0008202099737533
 43
0.0
 43
0.0
 43
0.0
 43
0.0
 43
1.0
 43
0.0
 43
0.0
 43
0.0
 43
0.0
 43
1.0
 77
     0
 47
0.0008202099737533
 47
0.0
 47
0.0
 47
0.0
 47
0.0
 47
0.0008202099737533
 47
0.0
 47
0.0
 47
0.0
 47
0.0
 47
1.0
 47
0.0
 47
0.0
 47
0.0
 47
0.0
 47
1.0
171
     0
 49
0.0008202099737533
 49
0.0
 49
0.0
 49
0.0
 49
0.0
 49
0.0008202099737533
 49
0.0
 49
0.0
 49
0.0
 49
0.0
 49
1.0
 49
0.0
 49
0.0
 49
0.0
 49
0.0
 49
1.0
175
     0
142
0.0008202099737533
142
0.0
142
0.0
142
0.0
142
0.0
142
0.0008202099737533
142
0.0
142
0.0
142
0.0
142
0.0
142
1.0
142
0.0
142
0.0
142
0.0
142
0.0
142
1.0
179
     0
144
0.0008202099737533
144
0.0
144
0.0
144
0.0
144
0.0
144
0.0008202099737533
144
0.0
144
0.0
144
0.0
144
0.0
144
1.0
144
0.0
144
0.0
144
0.0
144
0.0
144
1.0
147
0.0008202099737533
147
0.0
147
0.0
147
0.0
147
0.0
147
0.0008202099737533
147
0.0
147
0.0
147
0.0
147
0.0
147
1.0
147
0.0
147
0.0
147
0.0
147
0.0
147
1.0
  0
MLEADERSTYLE
  5
13318
102
{ACAD_REACTORS
330
13317
102
}
330
13317
100
AcDbMLeaderStyle
170
     2
171
     1
172
     0
 90
        2
 40
0.0
 41
0.0
173
     1
 91
-1056964608
340
14
 92
       -2
290
     1
 42
2.0
291
     1
 43
0.36
  3
Standard
 44
4.0
300

342
11
174
     1
178
     6
175
     1
176
     0
 93
-1056964608
 45
4.0
292
     0
297
     0
 46
4.0
 94
-1056964608
 47
1.0
 49
1.0
140
1.0
293
     1
141
0.0
294
     1
177
     0
142
1.0
295
     0
296
     0
143
0.125
1001
ACAD_MLEADERVER
1070
     2
  0
MLINESTYLE
  5
18
102
{ACAD_REACTORS
330
17
102
}
330
17
100
AcDbMlineStyle
  2
STANDARD
 70
     0
  3

 62
   256
 51
90.0
 52
90.0
 71
     2
 49
0.5
 62
   256
  6
BYLAYER
 49
-0.5
 62
   256
  6
BYLAYER
  0
ACDBPLACEHOLDER
  5
F
102
{ACAD_REACTORS
330
E
102
}
330
E
  0
SCALE
  5
13306
102
{ACAD_REACTORS
330
13305
102
}
330
13305
100
AcDbScale
 70
     0
300
1:1
140
1.0
141
1.0
290
     1
  0
SCALE
  5
13307
102
{ACAD_REACTORS
330
13305
102
}
330
13305
100
AcDbScale
 70
     0
300
1:2
140
1.0
141
2.0
290
     0
  0
SCALE
  5
13308
102
{ACAD_REACTORS
330
13305
102
}
330
13305
100
AcDbScale
 70
     0
300
1:4
140
1.0
141
4.0
290
     0
  0
SCALE
  5
13309
102
{ACAD_REACTORS
330
13305
102
}
330
13305
100
AcDbScale
 70
     0
300
1:5
140
1.0
141
5.0
290
     0
  0
SCALE
  5
1330A
102
{ACAD_REACTORS
330
13305
102
}
330
13305
100
AcDbScale
 70
     0
300
1:8
140
1.0
141
8.0
290
     0
  0
SCALE
  5
1330B
102
{ACAD_REACTORS
330
13305
102
}
330
13305
100
AcDbScale
 70
     0
300
1:10
140
1.0
141
10.0
290
     0
  0
SCALE
  5
1330C
102
{ACAD_REACTORS
330
13305
102
}
330
13305
100
AcDbScale
 70
     0
300
1:16
140
1.0
141
16.0
290
     0
  0
SCALE
  5
1330D
102
{ACAD_REACTORS
330
13305
102
}
330
13305
100
AcDbScale
 70
     0
300
1:20
140
1.0
141
20.0
290
     0
  0
SCALE
  5
1330E
102
{ACAD_REACTORS
330
13305
102
}
330
13305
100
AcDbScale
 70
     0
300
1:30
140
1.0
141
30.0
290
     0
  0
SCALE
  5
1330F
102
{ACAD_REACTORS
330
13305
102
}
330
13305
100
AcDbScale
 70
     0
300
1:40
140
1.0
141
40.0
290
     0
  0
SCALE
  5
13310
102
{ACAD_REACTORS
330
13305
102
}
330
13305
100
AcDbScale
 70
     0
300
1:50
140
1.0
141
50.0
290
     0
  0
SCALE
  5
13311
102
{ACAD_REACTORS
330
13305
102
}
330
13305
100
AcDbScale
 70
     0
300
1:100
140
1.0
141
100.0
290
     0
  0
SCALE
  5
13312
102
{ACAD_REACTORS
330
13305
102
}
330
13305
100
AcDbScale
 70
     0
300
2:1
140
2.0
141
1.0
290
     0
  0
SCALE
  5
13313
102
{ACAD_REACTORS
330
13305
102
}
330
13305
100
AcDbScale
 70
     0
300
4:1
140
4.0
141
1.0
290
     0
  0
SCALE
  5
13314
102
{ACAD_REACTORS
330
13305
102
}
330
13305
100
AcDbScale
 70
     0
300
8:1
140
8.0
141
1.0
290
     0
  0
SCALE
  5
13315
102
{ACAD_REACTORS
330
13305
102
}
330
13305
100
AcDbScale
 70
     0
300
10:1
140
10.0
141
1.0
290
     0
  0
SCALE
  5
13316
102
{ACAD_REACTORS
330
13305
102
}
330
13305
100
AcDbScale
 70
     0
300
100:1
140
100.0
141
1.0
290
     0
  0
ACAD_PROXY_OBJECT
  5
21096
102
{ACAD_REACTORS
330
21095
102
}
330
21095
100
AcDbProxyObject
 90
      499
 91
      583
 95
   983063
 70
     0
 93
     2047
310
9094D65747269633530004B360000000000000A2060000000000000A202229258409E5840A25840A65840B05840B4000000000000001220233A65800000000000028800000000000000A2060000000000000A2040000000000001720202AD129E2E20B1AB30B9102B34B2BBA9B2B1BA34B7B729BA30B93A24B21F1296929E2
310
E20B1AB30B9102B34B2BBA9B2B1BA34B7B722B73224B21F129014129E2E20B1AB30B9102B34B2BBA9B1B0B632902E33101112B9B7111F12948060080A0E829CA692666200C400000000000002204000000000000022020D0305A88A9F643F27E32B9969C2960E81F87FA0718D4DE3E87E32B9969C2960E85F9E5129FC49EA5
310
FA7F
340
11
340
0
340
0
340
16
340
16
340
11
 94
        0
1001
ACAD
1000
AcRTDxfName
1000
ACDBSECTIONVIEWSTYLE
1000
AcRTDxfName
1000
ACDBSECTIONVIEWSTYLE
1000
AcRTDxfName
1000
ACDBSECTIONVIEWSTYLE
1000
AcRTDxfName
1000
ACDBSECTIONVIEWSTYLE
1000
AcRTDxfName
1000
ACDBSECTIONVIEWSTYLE
1000
AcRTDxfName
1000
ACDBSECTIONVIEWSTYLE
1000
AcRTDxfName
1000
ACDBSECTIONVIEWSTYLE
1000
AcRTDxfName
1000
ACDBSECTIONVIEWSTYLE
  0
TABLESTYLE
  5
7F
102
{ACAD_XDICTIONARY
360
13AF6
102
}
102
{ACAD_REACTORS
330
7E
102
}
330
7E
100
AcDbTableStyle
  3
Standard
 70
     0
 71
     0
 40
1.5
 41
1.5
280
     0
281
     0
  7
Standard
140
4.5
170
     2
 62
     0
 63
     7
283
     0
274
    -2
284
     1
 64
     0
275
    -2
285
     1
 65
     0
276
    -2
286
     1
 66
     0
277
    -2
287
     1
 67
     0
278
    -2
288
     1
 68
     0
279
    -2
289
     1
 69
     0
  7
Standard
140
6.0
170
     5
 62
     0
 63
     7
283
     0
274
    -2
284
     1
 64
     0
275
    -2
285
     1
 65
     0
276
    -2
286
     1
 66
     0
277
    -2
287
     1
 67
     0
278
    -2
288
     1
 68
     0
279
    -2
289
     1
 69
     0
  7
Standard
140
4.5
170
     5
 62
     0
 63
     7
283
     0
274
    -2
284
     1
 64
     0
275
    -2
285
     1
 65
     0
276
    -2
286
     1
 66
     0
277
    -2
287
     1
 67
     0
278
    -2
288
     1
 68
     0
279
    -2
289
     1
 69
     0
  0
VISUALSTYLE
  5
132F2
102
{ACAD_XDICTIONARY
360
219BA
102
}
102
{ACAD_REACTORS
330
132EC
102
}
330
132EC
100
AcDbVisualStyle
  2
2dWireframe
 70
     4
 71
     0
 72
     2
 73
     0
 90
        0
 40
-0.6
 41
-30.0
 62
     5
 63
     7
 74
     1
 91
        4
 64
     7
 65
   257
 75
     1
175
     1
 42
1.0
 92
        0
 66
   257
 43
1.0
 76
     1
 77
     6
 78
     2
 67
     7
 79
     5
170
     0
171
     0
290
     0
174
     0
 93
        1
 44
0.0
173
     0
291
     0
 45
0.0
1001
ACAD
1000
AcDbSavedByObjectVersion
1070
     0
  0
VISUALSTYLE
  5
132F1
102
{ACAD_XDICTIONARY
360
219B8
102
}
102
{ACAD_REACTORS
330
132EC
102
}
330
132EC
100
AcDbVisualStyle
  2
Basic
 70
     7
 71
     1
 72
     0
 73
     1
 90
        0
 40
-0.6
 41
-30.0
 62
     5
 63
     7
 74
     0
 91
        4
 64
     7
 65
   257
 75
     1
175
     1
 42
1.0
 92
        8
 66
     7
 43
1.0
 76
     1
 77
     6
 78
     2
 67
     7
 79
     5
170
     0
171
     0
290
     0
174
     0
 93
        1
 44
0.0
173
     0
291
     1
 45
0.0
1001
ACAD
1000
AcDbSavedByObjectVersion
1070
     0
  0
VISUALSTYLE
  5
132F8
102
{ACAD_XDICTIONARY
360
219C6
102
}
102
{ACAD_REACTORS
330
132EC
102
}
330
132EC
100
AcDbVisualStyle
  2
Brighten
 70
    12
 71
     2
 72
     2
 73
     0
 90
        0
 40
-0.6
 41
-30.0
 62
     5
 63
     7
 74
     1
 91
        4
 64
     7
 65
   257
 75
     1
175
     1
 42
1.0
 92
        8
 66
     7
 43
1.0
 76
     1
 77
     6
 78
     2
 67
     7
 79
     5
170
     0
171
     0
290
     0
174
     0
 93
        1
 44
50.0
173
     0
291
     1
 45
0.0
1001
ACAD
1000
AcDbSavedByObjectVersion
1070
     0
  0
VISUALSTYLE
  5
132FC
102
{ACAD_XDICTIONARY
360
219CE
102
}
102
{ACAD_REACTORS
330
132EC
102
}
330
132EC
100
AcDbVisualStyle
  2
ColorChange
 70
    16
 71
     2
 72
     2
 73
     3
 90
        0
 40
-0.6
 41
-30.0
 62
     5
 63
     8
 74
     1
 91
        4
 64
     7
 65
   257
 75
     1
175
     1
 42
1.0
 92
        8
 66
     8
 43
1.0
 76
     1
 77
     6
 78
     2
 67
     7
 79
     5
170
     0
171
     0
290
     0
174
     0
 93
        1
 44
0.0
173
     0
291
     1
 45
0.0
1001
ACAD
1000
AcDbSavedByObjectVersion
1070
     0
  0
VISUALSTYLE
  5
132F5
102
{ACAD_XDICTIONARY
360
219C0
102
}
102
{ACAD_REACTORS
330
132EC
102
}
330
132EC
100
AcDbVisualStyle
  2
Conceptual
 70
     9
 71
     3
 72
     2
 73
     0
 90
        0
 40
-0.6
 41
-30.0
 62
     5
 63
     7
 74
     2
 91
        2
 64
     7
 65
   257
 75
     1
175
     1
 42
179.0
 92
        8
 66
     7
 43
1.0
 76
     1
 77
     6
 78
     2
 67
     7
 79
     3
170
     0
171
     0
290
     0
174
     0
 93
        1
 44
0.0
173
     0
291
     0
 45
0.0
1001
ACAD
1000
AcDbSavedByObjectVersion
1070
     0
  0
VISUALSTYLE
  5
132F7
102
{ACAD_XDICTIONARY
360
219C4
102
}
102
{ACAD_REACTORS
330
132EC
102
}
330
132EC
100
AcDbVisualStyle
  2
Dim
 70
    11
 71
     2
 72
     2
 73
     0
 90
        0
 40
-0.6
 41
-30.0
 62
     5
 63
     7
 74
     1
 91
        4
 64
     7
 65
   257
 75
     1
175
     1
 42
1.0
 92
        8
 66
     7
 43
1.0
 76
     1
 77
     6
 78
     2
 67
     7
 79
     5
170
     0
171
     0
290
     0
174
     0
 93
        1
 44
-50.0
173
     0
291
     1
 45
0.0
1001
ACAD
1000
AcDbSavedByObjectVersion
1070
     0
  0
VISUALSTYLE
  5
13304
102
{ACAD_XDICTIONARY
360
219DE
102
}
102
{ACAD_REACTORS
330
132EC
102
}
330
132EC
100
AcDbVisualStyle
  2
EdgeColorOff
 70
    22
 71
     2
 72
     2
 73
     0
 90
        0
 40
-0.6
 41
-30.0
 62
     5
 63
     7
 74
     1
 91
        4
 64
     7
 65
   257
 75
     1
175
     1
 42
1.0
 92
        8
 66
     7
 43
1.0
 76
     1
 77
     6
 78
     2
 67
     7
 79
     5
170
     0
171
     0
290
     0
174
     0
 93
        1
 44
0.0
173
     0
291
     1
 45
0.0
1001
ACAD
1000
AcDbSavedByObjectVersion
1070
     0
  0
VISUALSTYLE
  5
132FB
102
{ACAD_XDICTIONARY
360
219CC
102
}
102
{ACAD_REACTORS
330
132EC
102
}
330
132EC
100
AcDbVisualStyle
  2
Facepattern
 70
    15
 71
     2
 72
     2
 73
     0
 90
        0
 40
-0.6
 41
-30.0
 62
     5
 63
     7
 74
     1
 91
        4
 64
     7
 65
   257
 75
     1
175
     1
 42
1.0
 92
        8
 66
     7
 43
1.0
 76
     1
 77
     6
 78
     2
 67
     7
 79
     5
170
     0
171
     0
290
     0
174
     0
 93
        1
 44
0.0
173
     0
291
     1
 45
0.0
1001
ACAD
1000
AcDbSavedByObjectVersion
1070
     0
  0
VISUALSTYLE
  5
132ED
102
{ACAD_XDICTIONARY
360
219B0
102
}
102
{ACAD_REACTORS
330
132EC
102
}
330
132EC
100
AcDbVisualStyle
  2
Flat
 70
     0
 71
     2
 72
     1
 73
     1
 90
        2
 40
-0.6
 41
30.0
 62
     5
 63
     7
 74
     0
 91
        0
 64
     7
 65
   257
 75
     1
175
     1
 42
1.0
 92
        8
 66
     7
 43
1.0
 76
     1
 77
     6
 78
     2
 67
     7
 79
     5
170
     0
171
     0
290
     0
174
     0
 93
       13
 44
0.0
173
     0
291
     1
 45
0.0
1001
ACAD
1000
AcDbSavedByObjectVersion
1070
     0
  0
VISUALSTYLE
  5
132EE
102
{ACAD_XDICTIONARY
360
219B2
102
}
102
{ACAD_REACTORS
330
132EC
102
}
330
132EC
100
AcDbVisualStyle
  2
FlatWithEdges
 70
     1
 71
     2
 72
     1
 73
     1
 90
        2
 40
-0.6
 41
30.0
 62
     5
 63
     7
 74
     1
 91
        0
 64
     7
 65
   257
 75
     1
175
     1
 42
1.0
 92
        0
 66
   257
 43
1.0
 76
     1
 77
     6
 78
     2
 67
     7
 79
     5
170
     0
171
     0
290
     0
174
     0
 93
       13
 44
0.0
173
     0
291
     1
 45
0.0
1001
ACAD
1000
AcDbSavedByObjectVersion
1070
     0
  0
VISUALSTYLE
  5
132EF
102
{ACAD_XDICTIONARY
360
219B4
102
}
102
{ACAD_REACTORS
330
132EC
102
}
330
132EC
100
AcDbVisualStyle
  2
Gouraud
 70
     2
 71
     2
 72
     2
 73
     1
 90
        2
 40
-0.6
 41
30.0
 62
     5
 63
     7
 74
     0
 91
        0
 64
     7
 65
   257
 75
     1
175
     1
 42
1.0
 92
        0
 66
     7
 43
1.0
 76
     1
 77
     6
 78
     2
 67
     7
 79
     5
170
     0
171
     0
290
     0
174
     0
 93
       13
 44
0.0
173
     0
291
     1
 45
0.0
1001
ACAD
1000
AcDbSavedByObjectVersion
1070
     0
  0
VISUALSTYLE
  5
132F0
102
{ACAD_XDICTIONARY
360
219B6
102
}
102
{ACAD_REACTORS
330
132EC
102
}
330
132EC
100
AcDbVisualStyle
  2
GouraudWithEdges
 70
     3
 71
     2
 72
     2
 73
     1
 90
        2
 40
-0.6
 41
30.0
 62
     5
 63
     7
 74
     1
 91
        0
 64
     7
 65
   257
 75
     1
175
     1
 42
1.0
 92
        0
 66
   257
 43
1.0
 76
     1
 77
     6
 78
     2
 67
     7
 79
     5
170
     0
171
     0
290
     0
174
     0
 93
       13
 44
0.0
173
     0
291
     1
 45
0.0
1001
ACAD
1000
AcDbSavedByObjectVersion
1070
     0
  0
VISUALSTYLE
  5
132F4
102
{ACAD_XDICTIONARY
360
219BE
102
}
102
{ACAD_REACTORS
330
132EC
102
}
330
132EC
100
AcDbVisualStyle
  2
Hidden
 70
     6
 71
     1
 72
     2
 73
     2
 90
        0
 40
-0.6
 41
-30.0
 62
     5
 63
     7
 74
     2
 91
        2
 64
     7
 65
   257
 75
     2
175
     1
 42
40.0
 92
        0
 66
   257
 43
1.0
 76
     1
 77
     6
 78
     2
 67
     7
 79
     3
170
     0
171
     0
290
     0
174
     0
 93
        1
 44
0.0
173
     0
291
     0
 45
0.0
1001
ACAD
1000
AcDbSavedByObjectVersion
1070
     0
  0
VISUALSTYLE
  5
13302
102
{ACAD_XDICTIONARY
360
219DA
102
}
102
{ACAD_REACTORS
330
132EC
102
}
330
132EC
100
AcDbVisualStyle
  2
JitterOff
 70
    20
 71
     2
 72
     2
 73
     0
 90
        0
 40
-0.6
 41
-30.0
 62
     5
 63
     7
 74
     1
 91
        4
 64
     7
 65
   257
 75
     1
175
     1
 42
1.0
 92
       10
 66
     7
 43
1.0
 76
     1
 77
     6
 78
     2
 67
     7
 79
     5
170
     0
171
     0
290
     0
174
     0
 93
        1
 44
0.0
173
     0
291
     1
 45
0.0
1001
ACAD
1000
AcDbSavedByObjectVersion
1070
     0
  0
VISUALSTYLE
  5
132FA
102
{ACAD_XDICTIONARY
360
219CA
102
}
102
{ACAD_REACTORS
330
132EC
102
}
330
132EC
100
AcDbVisualStyle
  2
Linepattern
 70
    14
 71
     2
 72
     2
 73
     0
 90
        0
 40
-0.6
 41
-30.0
 62
     5
 63
     7
 74
     1
 91
        4
 64
     7
 65
   257
 75
     7
175
     7
 42
1.0
 92
        8
 66
     7
 43
1.0
 76
     1
 77
     6
 78
     2
 67
     7
 79
     5
170
     0
171
     0
290
     0
174
     0
 93
        1
 44
0.0
173
     0
291
     1
 45
0.0
1001
ACAD
1000
AcDbSavedByObjectVersion
1070
     0
  0
VISUALSTYLE
  5
13303
102
{ACAD_XDICTIONARY
360
219DC
102
}
102
{ACAD_REACTORS
330
132EC
102
}
330
132EC
100
AcDbVisualStyle
  2
OverhangOff
 70
    21
 71
     2
 72
     2
 73
     0
 90
        0
 40
-0.6
 41
-30.0
 62
     5
 63
     7
 74
     1
 91
        4
 64
     7
 65
   257
 75
     1
175
     1
 42
1.0
 92
        9
 66
     7
 43
1.0
 76
     1
 77
     6
 78
     2
 67
     7
 79
     5
170
     0
171
     0
290
     0
174
     0
 93
        1
 44
0.0
173
     0
291
     1
 45
0.0
1001
ACAD
1000
AcDbSavedByObjectVersion
1070
     0
  0
VISUALSTYLE
  5
132F6
102
{ACAD_XDICTIONARY
360
219C2
102
}
102
{ACAD_REACTORS
330
132EC
102
}
330
132EC
100
AcDbVisualStyle
  2
Realistic
 70
     8
 71
     2
 72
     2
 73
     0
 90
        2
 40
-0.6
 41
30.0
 62
     5
 63
     7
 74
     0
 91
        0
 64
     7
 65
   257
 75
     1
175
     1
 42
1.0
 92
        8
 66
   257
 43
1.0
 76
     1
 77
     6
 78
     2
 67
     7
 79
     3
170
     0
171
     0
290
     0
174
     0
 93
       13
 44
0.0
173
     0
291
     0
 45
0.0
1001
ACAD
1000
AcDbSavedByObjectVersion
1070
     0
  0
VISUALSTYLE
  5
13301
102
{ACAD_XDICTIONARY
360
219D8
102
}
102
{ACAD_REACTORS
330
132EC
102
}
330
132EC
100
AcDbVisualStyle
  2
Shaded
 70
    27
 71
     2
 72
     2
 73
     1
 90
        2
 40
-0.6
 41
30.0
 62
     5
 63
     7
 74
     0
 91
        4
 64
     7
 65
   257
 75
     1
175
     1
 42
1.0
 92
        8
 66
   257
 43
1.0
 76
     1
 77
     6
 78
     2
 67
     8
 79
     3
170
     0
171
     0
290
     0
174
     0
 93
        5
 44
0.0
173
     0
291
     0
 45
0.0
1001
ACAD
1000
AcDbSavedByObjectVersion
1070
     0
  0
VISUALSTYLE
  5
13300
102
{ACAD_XDICTIONARY
360
219D6
102
}
102
{ACAD_REACTORS
330
132EC
102
}
330
132EC
100
AcDbVisualStyle
  2
Shaded with edges
 70
    26
 71
     2
 72
     2
 73
     1
 90
        2
 40
-0.6
 41
30.0
 62
     5
 63
     7
 74
     1
 91
       10
 64
     7
 65
   257
 75
     2
175
     1
 42
1.0
 92
        8
 66
   257
 43
1.0
 76
     1
 77
     6
 78
     2
 67
     7
 79
     3
170
     0
171
     0
290
     0
174
     0
 93
        5
 44
0.0
173
     0
291
     0
 45
0.0
1001
ACAD
1000
AcDbSavedByObjectVersion
1070
     0
  0
VISUALSTYLE
  5
132FD
102
{ACAD_XDICTIONARY
360
219D0
102
}
102
{ACAD_REACTORS
330
132EC
102
}
330
132EC
100
AcDbVisualStyle
  2
Shades of Gray
 70
    23
 71
     2
 72
     2
 73
     3
 90
        0
 40
-0.6
 41
-30.0
 62
     5
 63
     7
 74
     2
 91
        2
 64
     7
 65
     7
 75
     1
175
     1
 42
40.0
 92
        8
 66
     7
 43
1.0
 76
     1
 77
     6
 78
     2
 67
     7
 79
     3
170
     0
171
     0
290
     0
174
     0
 93
        1
 44
0.0
173
     0
291
     0
 45
0.0
1001
ACAD
1000
AcDbSavedByObjectVersion
1070
     0
  0
VISUALSTYLE
  5
132FE
102
{ACAD_XDICTIONARY
360
219D2
102
}
102
{ACAD_REACTORS
330
132EC
102
}
330
132EC
100
AcDbVisualStyle
  2
Sketchy
 70
    24
 71
     1
 72
     2
 73
     2
 90
        0
 40
-0.6
 41
-30.0
 62
     5
 63
     7
 74
     2
 91
        2
 64
     7
 65
     7
 75
     1
175
     1
 42
40.0
 92
       11
 66
     7
 43
1.0
 76
     1
 77
     6
 78
     2
 67
     7
 79
     6
170
     0
171
     0
290
     0
174
     0
 93
        1
 44
0.0
173
     0
291
     0
 45
0.0
1001
ACAD
1000
AcDbSavedByObjectVersion
1070
     0
  0
VISUALSTYLE
  5
132F9
102
{ACAD_XDICTIONARY
360
219C8
102
}
102
{ACAD_REACTORS
330
132EC
102
}
330
132EC
100
AcDbVisualStyle
  2
Thicken
 70
    13
 71
     2
 72
     2
 73
     0
 90
        0
 40
-0.6
 41
-30.0
 62
     5
 63
     7
 74
     1
 91
        4
 64
     7
 65
   257
 75
     1
175
     1
 42
1.0
 92
       12
 66
     7
 43
1.0
 76
     1
 77
     6
 78
     2
 67
     7
 79
     5
170
     0
171
     0
290
     0
174
     0
 93
        1
 44
0.0
173
     0
291
     1
 45
0.0
1001
ACAD
1000
AcDbSavedByObjectVersion
1070
     0
  0
VISUALSTYLE
  5
132F3
102
{ACAD_XDICTIONARY
360
219BC
102
}
102
{ACAD_REACTORS
330
132EC
102
}
330
132EC
100
AcDbVisualStyle
  2
Wireframe
 70
     5
 71
     0
 72
     2
 73
     0
 90
        0
 40
-0.6
 41
-30.0
 62
     5
 63
     7
 74
     1
 91
        4
 64
     7
 65
   257
 75
     1
175
     1
 42
1.0
 92
        0
 66
   257
 43
1.0
 76
     1
 77
     6
 78
     2
 67
     7
 79
     3
170
     0
171
     0
290
     0
174
     0
 93
        1
 44
0.0
173
     0
291
     0
 45
0.0
1001
ACAD
1000
AcDbSavedByObjectVersion
1070
     0
  0
VISUALSTYLE
  5
132FF
102
{ACAD_XDICTIONARY
360
219D4
102
}
102
{ACAD_REACTORS
330
132EC
102
}
330
132EC
100
AcDbVisualStyle
  2
X-Ray
 70
    25
 71
     2
 72
     2
 73
     1
 90
        1
 40
0.5
 41
-30.0
 62
     5
 63
     7
 74
     1
 91
        0
 64
     7
 65
   257
 75
     1
175
     1
 42
1.0
 92
        8
 66
     7
 43
1.0
 76
     1
 77
     6
 78
     2
 67
     7
 79
     3
170
     0
171
     0
290
     0
174
     0
 93
       13
 44
0.0
173
     0
291
     0
 45
0.0
1001
ACAD
1000
AcDbSavedByObjectVersion
1070
     0
  0
DICTIONARYVAR
  5
13B60
102
{ACAD_REACTORS
330
5E
102
}
330
5E
100
DictionaryVariables
280
     0
  1
1:1
  0
DICTIONARYVAR
  5
13B5F
102
{ACAD_REACTORS
330
5E
102
}
330
5E
100
DictionaryVariables
280
     0
  1
STANDARD
  0
DICTIONARYVAR
  5
84
102
{ACAD_REACTORS
330
5E
102
}
330
5E
100
DictionaryVariables
280
     0
  1
STANDARD
  0
DICTIONARYVAR
  5
21502
102
{ACAD_REACTORS
330
5E
102
}
330
5E
100
DictionaryVariables
280
     0
  1
Metric50
  0
DICTIONARYVAR
  5
21503
102
{ACAD_REACTORS
330
5E
102
}
330
5E
100
DictionaryVariables
280
     0
  1
Metric50
  0
DICTIONARYVAR
  5
5F
102
{ACAD_REACTORS
330
5E
102
}
330
5E
100
DictionaryVariables
280
     0
  1
2
  0
DICTIONARYVAR
  5
63
102
{ACAD_REACTORS
330
5E
102
}
330
5E
100
DictionaryVariables
280
     0
  1
1
  0
DICTIONARYVAR
  5
13B62
102
{ACAD_REACTORS
330
5E
102
}
330
5E
100
DictionaryVariables
280
     0
  1
0
  0
DICTIONARYVAR
  5
13B61
102
{ACAD_REACTORS
330
5E
102
}
330
5E
100
DictionaryVariables
280
     0
  1
127
  0
DICTIONARYVAR
  5
22D63
102
{ACAD_REACTORS
330
5E
102
}
330
5E
100
DictionaryVariables
280
     0
  1
2
  0
DICTIONARY
  5
1337D
102
{ACAD_REACTORS
330
13372
102
}
330
13372
100
AcDbDictionary
281
     1
  0
DICTIONARY
  5
22D71
330
22
100
AcDbDictionary
280
     1
281
     1
  3
ACAD_XREC_ROUNDTRIP
360
22D72
  0
DICTIONARY
  5
22D74
330
D3
100
AcDbDictionary
280
     1
281
     1
  3
ACAD_XREC_ROUNDTRIP
360
22D75
  0
DICTIONARY
  5
22D76
330
D7
100
AcDbDictionary
280
     1
281
     1
  3
ACAD_XREC_ROUNDTRIP
360
22D77
  0
DICTIONARY
  5
132DD
330
132DC
100
AcDbDictionary
280
     1
281
     1
  3
ACAD_XREC_ROUNDTRIP
360
22D79
  3
BUMPTILE
360
132DF
  3
DIFFUSETILE
360
132DE
  3
OPACITYTILE
360
132E2
  3
REFLECTIONTILE
360
132E1
  3
REFRACTIONTILE
360
132E3
  3
SPECULARTILE
360
132E0
  0
DICTIONARY
  5
132D5
330
132D4
100
AcDbDictionary
280
     1
281
     1
  3
ACAD_XREC_ROUNDTRIP
360
22D78
  3
BUMPTILE
360
132D7
  3
DIFFUSETILE
360
132D6
  3
OPACITYTILE
360
132DA
  3
REFLECTIONTILE
360
132D9
  3
REFRACTIONTILE
360
132DB
  3
SPECULARTILE
360
132D8
  0
DICTIONARY
  5
132E5
330
132E4
100
AcDbDictionary
280
     1
281
     1
  3
ACAD_XREC_ROUNDTRIP
360
22D7A
  3
BUMPTILE
360
132E7
  3
DIFFUSETILE
360
132E6
  3
FBXASSET
360
188C8
  3
OPACITYTILE
360
132EA
  3
REFLECTIONTILE
360
132E9
  3
REFRACTIONTILE
360
132EB
  3
SPECULARTILE
360
132E8
  0
DICTIONARY
  5
13AF6
330
7F
100
AcDbDictionary
280
     1
281
     1
  3
ACAD_ROUNDTRIP_2008_TABLESTYLE_CELLSTYLEMAP
360
22D64
  3
ACAD_XREC_ROUNDTRIP
360
22D73
  0
DICTIONARY
  5
219BA
330
132F2
100
AcDbDictionary
280
     1
281
     1
  3
ACAD_XREC_ROUNDTRIP
360
219BB
  0
DICTIONARY
  5
219B8
330
132F1
100
AcDbDictionary
280
     1
281
     1
  3
ACAD_XREC_ROUNDTRIP
360
219B9
  0
DICTIONARY
  5
219C6
330
132F8
100
AcDbDictionary
280
     1
281
     1
  3
ACAD_XREC_ROUNDTRIP
360
219C7
  0
DICTIONARY
  5
219CE
330
132FC
100
AcDbDictionary
280
     1
281
     1
  3
ACAD_XREC_ROUNDTRIP
360
219CF
  0
DICTIONARY
  5
219C0
330
132F5
100
AcDbDictionary
280
     1
281
     1
  3
ACAD_XREC_ROUNDTRIP
360
219C1
  0
DICTIONARY
  5
219C4
330
132F7
100
AcDbDictionary
280
     1
281
     1
  3
ACAD_XREC_ROUNDTRIP
360
219C5
  0
DICTIONARY
  5
219DE
330
13304
100
AcDbDictionary
280
     1
281
     1
  3
ACAD_XREC_ROUNDTRIP
360
219DF
  0
DICTIONARY
  5
219CC
330
132FB
100
AcDbDictionary
280
     1
281
     1
  3
ACAD_XREC_ROUNDTRIP
360
219CD
  0
DICTIONARY
  5
219B0
330
132ED
100
AcDbDictionary
280
     1
281
     1
  3
ACAD_XREC_ROUNDTRIP
360
219B1
  0
DICTIONARY
  5
219B2
330
132EE
100
AcDbDictionary
280
     1
281
     1
  3
ACAD_XREC_ROUNDTRIP
360
219B3
  0
DICTIONARY
  5
219B4
330
132EF
100
AcDbDictionary
280
     1
281
     1
  3
ACAD_XREC_ROUNDTRIP
360
219B5
  0
DICTIONARY
  5
219B6
330
132F0
100
AcDbDictionary
280
     1
281
     1
  3
ACAD_XREC_ROUNDTRIP
360
219B7
  0
DICTIONARY
  5
219BE
330
132F4
100
AcDbDictionary
280
     1
281
     1
  3
ACAD_XREC_ROUNDTRIP
360
219BF
  0
DICTIONARY
  5
219DA
330
13302
100
AcDbDictionary
280
     1
281
     1
  3
ACAD_XREC_ROUNDTRIP
360
219DB
  0
DICTIONARY
  5
219CA
330
132FA
100
AcDbDictionary
280
     1
281
     1
  3
ACAD_XREC_ROUNDTRIP
360
219CB
  0
DICTIONARY
  5
219DC
330
13303
100
AcDbDictionary
280
     1
281
     1
  3
ACAD_XREC_ROUNDTRIP
360
219DD
  0
DICTIONARY
  5
219C2
330
132F6
100
AcDbDictionary
280
     1
281
     1
  3
ACAD_XREC_ROUNDTRIP
360
219C3
  0
DICTIONARY
  5
219D8
330
13301
100
AcDbDictionary
280
     1
281
     1
  3
ACAD_XREC_ROUNDTRIP
360
219D9
  0
DICTIONARY
  5
219D6
330
13300
100
AcDbDictionary
280
     1
281
     1
  3
ACAD_XREC_ROUNDTRIP
360
219D7
  0
DICTIONARY
  5
219D0
330
132FD
100
AcDbDictionary
280
     1
281
     1
  3
ACAD_XREC_ROUNDTRIP
360
219D1
  0
DICTIONARY
  5
219D2
330
132FE
100
AcDbDictionary
280
     1
281
     1
  3
ACAD_XREC_ROUNDTRIP
360
219D3
  0
DICTIONARY
  5
219C8
330
132F9
100
AcDbDictionary
280
     1
281
     1
  3
ACAD_XREC_ROUNDTRIP
360
219C9
  0
DICTIONARY
  5
219BC
330
132F3
100
AcDbDictionary
280
     1
281
     1
  3
ACAD_XREC_ROUNDTRIP
360
219BD
  0
DICTIONARY
  5
219D4
330
132FF
100
AcDbDictionary
280
     1
281
     1
  3
ACAD_XREC_ROUNDTRIP
360
219D5
  0
XRECORD
  5
22D72
102
{ACAD_REACTORS
330
22D71
102
}
330
22D71
100
AcDbXrecord
280
     1
102
SHADEPLOT
 70
     0
102
SHADEPLOTRESLEVEL
 70
     2
102
SHADEPLOTCUSTOMDPI
 70
   300
  0
XRECORD
  5
22D75
102
{ACAD_REACTORS
330
22D74
102
}
330
22D74
100
AcDbXrecord
280
     1
102
SHADEPLOT
 70
     0
102
SHADEPLOTRESLEVEL
 70
     2
102
SHADEPLOTCUSTOMDPI
 70
   300
  0
XRECORD
  5
22D77
102
{ACAD_REACTORS
330
22D76
102
}
330
22D76
100
AcDbXrecord
280
     1
102
SHADEPLOT
 70
     0
102
SHADEPLOTRESLEVEL
 70
     2
102
SHADEPLOTCUSTOMDPI
 70
   300
  0
XRECORD
  5
22D79
102
{ACAD_REACTORS
330
132DD
102
}
330
132DD
100
AcDbXrecord
280
     1
102
MATERIAL
148
0.0
149
0.0
149
0.0
 93
        0
 94
      127
282
     0
 72
     0
 77
     0
171
     0
175
     0
179
     0
273
     0
  0
XRECORD
  5
132DF
102
{ACAD_REACTORS
330
132DD
102
}
330
132DD
100
AcDbXrecord
280
     1
270
     1
271
     1
  0
XRECORD
  5
132DE
102
{ACAD_REACTORS
330
132DD
102
}
330
132DD
100
AcDbXrecord
280
     1
270
     1
271
     1
  0
XRECORD
  5
132E2
102
{ACAD_REACTORS
330
132DD
102
}
330
132DD
100
AcDbXrecord
280
     1
270
     1
271
     1
  0
XRECORD
  5
132E1
102
{ACAD_REACTORS
330
132DD
102
}
330
132DD
100
AcDbXrecord
280
     1
270
     1
271
     1
  0
XRECORD
  5
132E3
102
{ACAD_REACTORS
330
132DD
102
}
330
132DD
100
AcDbXrecord
280
     1
270
     1
271
     1
  0
XRECORD
  5
132E0
102
{ACAD_REACTORS
330
132DD
102
}
330
132DD
100
AcDbXrecord
280
     1
270
     1
271
     1
  0
XRECORD
  5
22D78
102
{ACAD_REACTORS
330
132D5
102
}
330
132D5
100
AcDbXrecord
280
     1
102
MATERIAL
148
0.0
149
0.0
149
0.0
 93
        0
 94
      127
282
     0
 72
     0
 77
     0
171
     0
175
     0
179
     0
273
     0
  0
XRECORD
  5
132D7
102
{ACAD_REACTORS
330
132D5
102
}
330
132D5
100
AcDbXrecord
280
     1
270
     1
271
     1
  0
XRECORD
  5
132D6
102
{ACAD_REACTORS
330
132D5
102
}
330
132D5
100
AcDbXrecord
280
     1
270
     1
271
     1
  0
XRECORD
  5
132DA
102
{ACAD_REACTORS
330
132D5
102
}
330
132D5
100
AcDbXrecord
280
     1
270
     1
271
     1
  0
XRECORD
  5
132D9
102
{ACAD_REACTORS
330
132D5
102
}
330
132D5
100
AcDbXrecord
280
     1
270
     1
271
     1
  0
XRECORD
  5
132DB
102
{ACAD_REACTORS
330
132D5
102
}
330
132D5
100
AcDbXrecord
280
     1
270
     1
271
     1
  0
XRECORD
  5
132D8
102
{ACAD_REACTORS
330
132D5
102
}
330
132D5
100
AcDbXrecord
280
     1
270
     1
271
     1
  0
XRECORD
  5
22D7A
102
{ACAD_REACTORS
330
132E5
102
}
330
132E5
100
AcDbXrecord
280
     1
102
MATERIAL
148
0.0
149
0.0
149
0.0
 93
        0
 94
      127
282
     0
 72
     0
 77
     0
171
     0
175
     0
179
     0
273
     0
  0
XRECORD
  5
132E7
102
{ACAD_REACTORS
330
132E5
102
}
330
132E5
100
AcDbXrecord
280
     1
270
     1
271
     1
  0
XRECORD
  5
132E6
102
{ACAD_REACTORS
330
132E5
102
}
330
132E5
100
AcDbXrecord
280
     1
270
     1
271
     1
  0
XRECORD
  5
188C8
102
{ACAD_REACTORS
330
132E5
102
}
330
132E5
100
AcDbXrecord
280
     1
 70
     1
 90
-1506045146
 71
     1
  1
F36B37E3-13C1-4398-BD47-E8A5DB37218D
310
504B03040A00000800001095883D3DEE336E79000000790000001B0000006175746F6465736B2D64657369676E2D7061636B6167652E786D6C3C3F786D6C2076657273696F6E3D22312E302220656E636F64696E673D227574662D3822203F3E3C666F726D6174733E3C666F726D61743E687474703A2F2F736368656D612E
310
6175746F6465736B2E636F6D2F64657369676E2D7061636B6167652F323030393C2F666F726D61743E3C2F666F726D6174733E504B03041400060808001095883D65017641AD00000026010000130000005B436F6E74656E745F54797065735D2E786D6C6D8E4D0E82301085AFD2CC1E8A2E8C31800BF5065CA0D6011AE9B4
310
690783B7B70D1B4358CE9BF7F3D5D7C54EE283211A470D1CCA0A0492762F43430333F7C519C4B5ADBBAFC7289297620323B3BF4819F58856C5D279A4F4E95DB08AD31906E9957EAB01E5B1AA4E523B62242E3877405BDFB157F3C4E2B12479DD7D1A02715B7D5DB235A0BC9F8C569CB0A4D38C5C440EA82CC8DD024FC3A6C0
310
D80C90F5FD4422DE24FE27F337E5648689ED0F504B03041400060808001095883D40FEC721E90000007C01000008000000636F72652E786D6C8D90416EC3201045AF82D856D8603B12B230118EDD13F40208888B128365A0EAF10B8923B5BBAE66F4E7BF99D167E7EFF50EBECC1EAC7703241586C038E5B575CB0053BC220A
310
C199B3DDFBF8CB068193AB1960912167CBEED37648CABB685CCCAAF3DA1CA20CC14408D43D37030CEAD3ACB292296647B8559B5437B9988ABCBA0CA76435781EB13AEFB3576B76C86937CF984E048949CCA8BBD077348EDD05B54288D3691A056E09AB0BCC59B4EBEBBEDA8D8C4643DE6082116910A61F84F61DEEDBF60DD3
310
1E635617FB1F286DFA9F50B22EB6CDF1EE130B9097471E03CEEA92452E8FA0722DB9F11F504B03041400060808001095883D55019EA25F0000007C00000007000000636E782E786D6C4DCB3B0E80201045D1AD90E915ED2CF8AC45050C11660C8261F98AB1B07AC9C97D42D718D865D3E909258CFD00CCE24AC6E326A164D7
310
4DC0B4128928FF326038472BA13128B1252AC747C6BAB984FC68F0B87FE8960A5C09FE86CFB69FBA01504B03041400060808001095883D99D5FB7A70010000D40300000C0000006662782F636F72652E786D6CC5535B6E833010BC8AE5DF0A6C1E9150641C91474FD00B38E0502B602363A31CBFCB234A53A551FA553EC09A
310
D9F5CE8C31DB5CDA060DD2F6CAE81C4721C548EAD2544AD739F6EE1464186D38B3C6B86F651869D1CA1C8F30E6ACB6C6770B541AEDA476806A53C905147D2F1D4665038B1CF7E5A76C4528BC838AFE1C76A23C8B5A86510834D471D63B0B02D03C647C637E3A5E189971CEBC57D5C2AA0AA6A9939216F32C3D1C68B68F8262
310
5F1C827497BD07DB6DBA0B92A22856ABFDB6A049C4C8D8CC9953ED555D69A570B2C23CA6110DA238A0D94794AD53BA4E92379AAD2965642CBF6BF25DF5629357DA25F122776EEB311F854CC40FB7109143BD18400FE18C8C21C2674AF83E6808044276E2D85C7D9C011A64E98C4D81A98CBF518368BC84A934A4D3837E5F30
310
3277C2D4697370FD7046FCF28CE73BC2510B5D8309E16079F46ED4C9660D4B689DB4C1E02E481BDB8AE6351B4F1CFE89BA897F28A9348DB1FFA5882C074496DF838CF7917F01504B03041400060808001095883D3909BF9F7C0000009D0000000B0000006662782F636E782E786D6C4DCC4D0AC3201845D1ADC837B7F19758
310
5043C12C243426488D16ABA5CB6F5232E8E8C1E171F5F0D9227AFBF20A3919A01702C8A77B9E435A0DB4BA600568B0BAE45CFF6E80D2B479030783D56BC9ED79D2EC97A9C5BA6B0CE971A2E394294A1896EC4AB060BDC24A12877B71A323778A4B31426775F72BED7B84ED17504B03041400060808001095883D2508348928
310
01000012020000310000006662782F44333132383130322D353239302D343237382D383530442D3734413145334438333534452F636F72652E786D6C8D515B6EC32010BC8AC557AA0A1B304E4884892A2537E80508262E4A0C168F2AC72FD48ED4FEE58745B333B303CB8F8FE95E7D6B1F8CB33DC0350295B6CA0DC68E3D48
310
F10A19A88E827BE7E21F1AA8AC9C740F0A0C041FBD4BF30A2967A3B631A3D60D7A0565083A824ADDF3A507417DE949D632C5CC08B77A96EA26475DE33AB7334FF0107D0E502D43CA09C4A9C58461446047F60852B2639075E80477F4039FDB136B3B7AE6CD22143C2533AC7233E438E66AB47FD5A488058F667AC6575ECBA8
310
072008C208620211FBC4EC40D1A16DDF113B20C49B42FF274AF3F0A228191B5BB2C65D640108CC9BA521F8E0D2E5FE0CA31FB3F3B12AF33641AB3720508D3065FB3D6F16627E7E76DCD2D53144E7F3F76E6E97CCC5DD62BBA582376543B9FCAE2FD7B24DF103504B03041400060808001095883DEDF4C73E4E010000330300
310
00300000006662782F44333132383130322D353239302D343237382D383530442D3734413145334438333534452F636E782E786D6CD593C16EC32010447F0571AD6CE3C48AAC0813A9877E410FBD62D82434182CC055F3F75D1292E692438FBD206B7698593D61BEFB9E2CF982108D77036D6B460938E5B57187812E695FF5
310
94EC040FDEA7071B254E4E30D02C53C10FC12F739134ECE56213AAD6B853110344BF040511E57C9358AFA4C50070D582224C23680D9ADC8DF8B58780ABA0389E493A02797BFD207EFC0495226F728AE04DEE103C9FA5E9C14489B232C68146758449D672495E433CD55A2659B7F5ADEBC94EBF49245FB8552EC1905C3ED07C
310
525136AA91236F7028784C01E915533ACF40859C676B944C08B9B918AF1EC117E3D2A62B5E83E003BADBCDBAEB30EC32133C99098A4305900934152BD6B2AA5D55AC7F6FFB6DC7B6EBF50BEBB78CF126DB051FBDB7E512C640F03351DE2570898A963779FC0C5FF1116D02B2F6E1FC079008A0B45EE9DC33FE339FE6F2BE11
310
57C0BF40FC00504B03041400060808001095883DA7282FA6B905000005110000340000006662782F44333132383130322D353239302D343237382D383530442D3734413145334438333534452F6F626A656374732E786D6CB5585B6F9B4814FE2B887DC61863374E85A9123BA9AC2A6D54ABD53E44B20618089BE1A2992175
310
F6D7EF373060F0A5F5DEF26098E1CCB97EE732F13EEC3266BC522ED2225F98CE686C1A340F8B28CD938559C9D89A9BC607DFE345217B64A691938C2E4CB56DFA5EC28BAAD45B118D49C5E4C1EEFDEDEF8608694E4D236444888529C2679A9111A9641151F1328A8824A324DE8D9C514338649B70523E1F302D09A7B984A6D8
310
CFC1C568947286CBB169FB9EADBEFB9EFAD554EE792ABBB667283FCD8524797824EC808DEB4C577793D9B5359B4E5D6BFA6EE258B7F7B72BCBB972C7CB77CBE5F5CDDD35040BC9C1496BC2696CFA1FE11B9E869EDD7CEA34D68A9F52292CF29C86B5FDB0B0D659738C6849F308714CA980B49ED5E3E1D251BEE97D76D55A8B
310
EC6F5F6655FF448F51AB7BFBEC6B5A047FC00471092AB8A00A558D7FB4A10DFEC67BAF0545C1F4B75418199194A784192C0D38E16FA60F5245E27B03360A9D5C215C5960FACE9E5F5F57A4C6AFB17B4ACBB8624C41D3F46B646F817F2A45AD59FA27E5A7A54127C4AA4A7339D706C9B7929AFEB567D79BBEA71EEE447F6C1C
310
69C48C240839CC6CBE1E18BA54B9B75E99FEA7FB60B751F9785A78C98B9272A9E00368B5816B9FCA4B5AAC7351E4D4011833F0F9DE295FE1F9CF48DFBD2A881B4F77D3DD544B919CE4222E7886D88CC6F59F316E5FACEEEDF805F5EC80FA98A6DBF947C49EDD293B2C18E7E20770A9D0CCFF7DFC863EEB23B5173EDF7B4582
310
15DCD5AEDC8484A1F43CA43902A24069B0025BA8E571B033FD352A252A3B4E11E6770E397AF1EC577CC76FC31BD5AA16DF7BE608E841BDBDA0F2C397755A40B7336039AA93B5606DDC399FCFFE939CB9596D3E6D2A1E93903EE8C2B2A2719AA712BD730FDEBE4283400C2C7AA16F3F0A1EC1D0E3206CFA41C8B428016F2B9F
310
2BC7276DB3508BBDE4818010E79242D53CEF17126084EAD83DFE0FA908296324A745D5CAED1A93426F5776F4E480BC6C5CEC4E0E70CDE96BAA668B01C5405174FF90A7A57262D706BBCA3D3A63DDB7F567C014F4AC0808DB1305FBFA1F16ACE0DBE06DDB94461368C49121DCBF0FF1AE5D602B2E48811ADC6D0DD23EDF4669
310
1C570285F8845BBFAF97FDD07595E5F8A5CDA8566293A453946B2423E11ACFAD4C4C089CA0D317F936455F479E9E14DE977D2840D47CCF1925288BB7296355B68D5386A6B9CD4879C663FF8F894195955B9215552ECFC81D58D77AB4F55F6BDE0059E20791E1B3E96FEAA7758B2E12D1680F9601B1EA8A27BC3A00C8BDFBEE
310
D6BDBA732DC75D3AD6D4BD9E5BB7ABE9957537BF99ADF065E2CC579D46F588E77B6DD3EC9705C4134DDAAB78AA03FD6D8D24D495C4F41F88144F1F9B1C7F4A9AE7B7F50893BA67E30C32AC3BB8CE4A46339A4BA2F2E741BDB0AF0483CE8047B3BFCE48422FE0F2E5E3E64007EC5C70EE51E53AFD717056EF2E55369E64229F
310
AB2CC849CA4C9F44E5FB0FF574B4B0D18EEC95EB4CE6CE7862CD26D7636B3AB99A5BF3D978655D4D6F9C3B77357767D33B9B5351543CA4C276EDF156BB6B5BE68976561B80EED9B4A676A9563A0A18A845C1D208953332125A6454A27E5ED0B678460570D6BF5E44FA1A74C1E9D766B0952460B4D5E49960B66702A9009056
310
A11CEE1BBF611655E3E0C2849B462FF8D105C43400908589B22C53B86414A0CFAB09AE660EE0609CEC6A37004AF284E18AD01CEAD6DD29E51B944DB4722DBF23B964ECD3760DFA05CA4A89F163D00D6ADDB480F06F19DEAA631089D7A0929D2DFB8DCE985A0CF2B1314A5F72300BBD68D13B64E5CFCD724635CDC023175DF8
310
7E0A8286AB25094FEA0B8ED24FAB74B37AB431D318EB2F46C9AA04B1BC9C93A5F28255AA2C00454085E6591209A82EDF3F3DF20297EACCB84F0181A765916545AE1737FA526E6C9E71C58E9E504CA8BA4789C9D8719EEA04D537AA6D40041D9148BC60A34D3865C101D600C8A3294087C0563138205FAF0CDDE8A6605A83F6
310
68BA6EFE9F602079D41558A54ABFC4963FBDC1D83529C0C071F7F0FF02504B03041400060800001095883D000000000000000000000000350000006662782F44333132383130322D353239302D343237382D383530442D3734413145334438333534452F76657274696365732E62696E504B03041400060808001095883DF2
310
70F1330600000004000000360000006662782F44333132383130322D353239302D343237382D383530442D3734413145334438333534452F747269616E676C65732E62696E636660600000504B03041400060800001095883D000000000000000000000000370000006662782F44333132383130322D353239302D34323738
310
2D383530442D3734413145334438333534452F617474726962757465732E62696E504B03041400060808001095883D08DA0BD19000000041010000360000006662782F44333132383130322D353239302D343237382D383530442D3734413145334438333534452F6469726563746F72792E786D6C858F410AC3201045AF22
310
B36F53E9A60B35CBEEBAE80D244E44489C6234F4F835464A48035D0DF398FF9F8AF63D0E6CC63039F212F8F9020C7D47C6792B21C5FE7403D62A1188E2E60C98D7234A5830286103A55745067B9D86B8A3CF9C7F90C11DE607FB144396D7B6A82D282E9A152AD114D5EF2CB866EEE831B8EEA07A7BB5A8D7D61A2BAAEB7FD5
310
F70921FF497D00504B03041400060808001095883DB852F564FC000000A00100003B0000006662782F44333132383130322D353239302D343237382D383530442D3734413145334438333534452F7265736F75726365732F636F72652E786D6C8D50596EC32014BC0AE2B7C2C64B24646122DB714ED00B20FC92A2C460B154
310
3D7E2176A5F6AF3F3C348B6634FCFCB53ED12738AFADE97155508CC028BB6873EF710C37C2303A0BEEAC0DBF641819B9428F338C05BF3B1BB70352D6043021A1C62E7080D27B0818A967FAF4D8AB0F58652163480AFF2836A91EF20E4555243AE904F7C1A502680FC92F160EBC8D4E81E7E5CE0A1EA35E0E8D5E52A6BE6970
310
58B0769E299BAE64B80C3369277625E3D84EA41986E174BA8C036D2A5E66B3E041AF3F1D95031960C1A2A61525554D287BAF58D7D2AE69DE28EB28E56596FF31C56DF9A7296A139AFAA8BBDB7CCA4A455E84E065DE2B9DD798E9E66DC537504B03041400060808001095883D2DEF20765E0000007A0000003A000000666278
310
2F44333132383130322D353239302D343237382D383530442D3734413145334438333534452F7265736F75726365732F636E782E786D6C4DCB390E80201085E1AB90E9158D8D05CB59882C21C28C41301EDF2516562FF9F23FA1CF9CD8E1CA1E09258CFD00CCE142366290D0AAEF66605A8942547F193034D9497818940885
310
DAF69175DEB4546F4D11D70F27E04AF037BBF779A90B504B03041400060808001095883D1688072FF7000000980100003D0000006662782F44333132383130322D353239302D343237382D383530442D3734413145334438333534452F7265736F75726365732F332F636F72652E786D6C8D50DD6E8320187D15F3DD2E288A
310
4D88411AADEE09F60204684B5AC1F0B3ECF187D525DBDD6EF8C8F9C93939ECFCB53C8B4FED8371B687BAC450682B9D32F6D6438A5744A13873E69D8BBF645058B1E81E361838BB7997D60392CE466D6346AD53FA0045083A42219FF9D3439077BD8852A49815E151AE423EC44D977599E9ACE32C449F0B147BC8F60227ACDA
310
51CE5232EAE08CCA59E66AB4074EDB79C674C268988619B517FA8EC6B1BD20320CC3E9348D032635AB363367D12C3FDDA4D7226A05BCC13546758330FDA869D7E28E90374C3B8C59B5C9FF98D2AAFE694AC646D21C75775BC859B9C88BE0ACDA76CAE73562BEDBA6FC1B504B03041400060808001095883D17BFF9D0270100
310
00C20100003C0000006662782F44333132383130322D353239302D343237382D383530442D3734413145334438333534452F7265736F75726365732F332F636E782E786D6C5551416EC32010FC0AE25A61C076146A61A24AC90F7A8F08DE3828365880ABF4F785D4ADDA0BBB9A99DD192DF2F09827F401215AEF7ACC2B8611
310
38E307EBC61EAFE94A0446072583F7E98F0C23A767E87181B19263F0EBB241035CF53AA58C4ED6DD37909D477010AC392F6EC4C84C3AC61E47738359577A4D7E8078AF069D74C5AB00D1AFC1405E515CD0E48D9EB21938B246ACF4B074873C0FA9A7D7CB831E1B5E0BCE6AB2AB5F1969EBBD2062C78E64DFBEF1537314CDAE
310
3DD19F9D9136F45F18498B87926BB0A8743D2E2F56BFA22A279634D34AC614F2593659FA5C72423BEB11E853F2CD2A99EC0C9BC604D00906AC6AC619E13561E29D8BAE655DD3BC30D1312669912B79F17EDA86AC4B10FC828CCF8D4B398AA4855692968BE6F23C77AE217F8AFA02504B03040A00000800001095883D88E575
310
979041000090410000420000006662782F44333132383130322D353239302D343237382D383530442D3734413145334438333534452F7265736F75726365732F332F305F67656E657269632E706E6789504E470D0A1A0A0000000D4948445200000080000000800806000000C33E61CB0000415749444154789CD490310A00
310
200C0373F4E7EABFE3A05D0405373D28293794125A2DD61596473C0FA08858ACE5F9BB73595C0E20607BDFF2173D9CE8000000FFFFD4924B0AC0400C429F9AFB1F39338B32FDD0AEBA6A0381208806AD372401437CEAF9245485CD1DC0C00E962E3657B8E7FB69BBFBC659B86D9220B4CB1D65FAD74C000000FFFFCC93310E
310
C03008035D1BFEFF63E84012554D86284BCB80301E7D3E00E06A3B0B02E0131024C1DD8736B3A9ED154AB5FB1DFAF35EFD48CE5EF33B1C1181CC842450FC552176E7060000FFFFCC95310E80300C03CFD4FCFFC1555486A445A21B03C24BA478F4257EF501522A14BE03C1F60ADD36A75D3C0AC6ACA69A8CDCE7BF42D2E34A
310
A79FDAFD7B2F29C38E002022E8BD2F008ED6B00D05C35E3BFFD5050000FFFFCC96390EC030080467252CFFFFBD5E8714B19DA34D8A4C872890D8E578618089CE36EAFBFFE02A7A29E536F58B4C52625E25C1535FC83CCD32435DD339E2B1E104DB76886D9BD61AB6B14DEF7D89BF18F523825A2B928888C3183F66070000FF
310
FFCC96B10AC03008444FAB19F2FFBFDA2107C10ED592215B3BD4F14038BCA7F8B13B5966FC0E063343738765E8DB67ACB6BDC2CFC7AD80C01250A08CC57A341E152209C52DCE19208931064882E40D41859F00C4D2AF221051A89ED043E1EE68EEE8BDEFC1FD415D000000FFFFCC96C10A02310C445F1B2BACFDFF5FDD1893
310
B61E765DADDE04C15B42602EF366C80FF1FC0E86524E94723ED23ED93E2596CDF8A3F25F6ED3323EE677181EB06C553F88689819AACAD58C9B19EE8E7B102D6811F4DEE9E3A9945222E58CEC0FA288602248CEACAA5C96855AEBDF35C21D0000FFFFCC974B0A80300C445F3F2BEDFD2F5AD1D01AEB425B15C5A5B849762121
310
6F06E6A36DCE30C01310F5E15535BCC4AF47928E1C77E9F7FA32B514541511619C26A4019048697382591555A52CA55ED11CC01883B516BF03E09CC77B47CE191121C681BEEF0821FCC61156000000FFFFC457C10A8030087DB3CDCB2EFBFFEF1C6B95A30EAE261D3A4490200A0A82F8F4F9D3388EFDAB880F0881C1CC36C3
310
0CC16E807CF39FECC5EC4D69C3F63573486B03F97329A8B5AAF62D202206F5F6053C6B6A6C830391EBAFA9D733E63D6412ACEB829C33628C482981885EF4EF3B39000000FFFFC498BD0E80200C84BFC190E0C4FB3F2852FEEA2020123707593A909096EB71E57E6900551DC39D316630FE093AD08C9659C96FEF66025B5F62
310
DBD717C0757D2DB8BE749DA921486B84803F3C22422D7591A09ED82441FD58945A21E74C8CB1D5DA656DA394424C892082738EDDDA2FD7F9699D000000FFFFC458310AC020108BA04E75B1FFFF658B978AD2C1A227A5D0CDE96E396E4808499610C02963647E010F05F80CE044822FD0F57CDD0EE9279BE9230911414A0914
310
B6DC6FF45F743298B1F672AC99C3D11F945A71E50CF72404EF3DAC7538CB018A600B017B8C4BD4E0060000FFFFBC58BB0E8030083C1734E962FFFF273B4AD1E260C1565D8C895D48089094D75DF8B501EC784374AEFB9628A28A1EAB9FD7FFB509FA62DFED5CDFF898DEA65F243BE35F98C19951B416BF62BEE37D0301F605
310
3F8E0EC0A007C5B4F8AA8AB215C8BA6214C1384D2022A8022925F0C288714608E14B8A5FBF1D0000FFFFAC98B10EC2300C445F225361B2D3FFFF482A70E2A6434800896CF562C91ECE8375A73B69F6EA8F569E0D2482AAB22C1742F87CFADC1DD49F7B66B9FDE81336E8FB192B40A3FF520A963339E766FF9E2FDC1D2A23F9
310
0BB1671E5DFCBFAF7D638F49FB820044629385BAE3E67871CC0CD51BAA5744846D7B6066ACEB9D94D234983ABB0E000000FFFFB458390E80300C7353D4A1CADAFF7FAF5FA89A0806E805A22021866C1EA2C472EC2CB559DC19EFCE2C7DC8F4AFB3F039D64DA4FF49EA6784E871E5D9532A4B6ECB3F148088AABCB7418CF77F
310
BD326240196300DA0995924254212AF0DEC33907918C182398192104586B7F27C1060000FFFFB4993B1280200C44570BB1A0C6FBDF100BA9B2C102017FA88D076018864742DE7E68013BE69B93D9FD9C9F4DD8703678C5CAD535EDB28FF6E5BD54834740B67D340340822210499A9764114B7D9772018D7AF308EAD9733A78
310
4D09D3A7E10002000A1196000A61AD85190D5415DECFD018313957B4F25F20AC000000FFFFB4593112C02008E3EC828B83FF7FA55DA4A7E8608BA2ED756907CE955CC024FA9107D039FF72F98838BCE275E7F4789BA8EDBF978085C4A275FD8DF4F964E65667BE4F3975F24DCBF685F5EFE0D0A18029D30028C328A8D60DCA
310
9C21529401B368C16C06F610E02002EF3D38E77E93840A0000FFFFAC99310AC0200C45DF5007EF7F490FD0C141D30E31515BA1945610044194FF135FF47708BC89EF132819192A2D239FD904ABF14336786B008334EBB514A47DFA58CA57F187BDD375BD46BD55009311FCAC8D25C6120238449F9DD941AA106324848D9C33
310
2925003781ADF4E54A1EDB090000FFFFAC99DD0A803008853FA331E8FD9F76C3D955732E8A8ABCD00B11040FC7BF5F01D08B9FF3E9E46951454F60CC97C3DF6C3F30C10800035AB3BEF679CF770AF7B4EF8B7EE587784812114C8D5A0BB21CDFCB8D35259A6A00011E3DCCA273CB792E3B000000FFFFA26A0280CD84B1B022
310
8C85647CD43A1FD3AD68753E321F4F23106F1790848480C00C28753DB4370FCDF7A8453ADC6C7844A35503B812054C9C8181818181918191119118FEFF812C62F9CDC4CCF0E3C70F064E46460616165686BF7FFF303CC748040880DE2525254100000000FFFF949AD10AC0200845AF4DA4FEFF2BFB832D64EB61E1DAA8986F
310
BE28C2BD4744E4F9CB53C7E48F62218476E060BC373C1A80FFA5BEB53D22DF6D80F52498E65A0FD763027443DFF45FD0ED8D719A78847BD72854ECC184F60329113666A82A72CE1011C418975A780C51010000FFFFC25302202F96C0AE021678B0C11DF848D6FFFFF0E955BC4911A5D187CAC756F463B403A85802C0BC88DA
310
66418E7CA4D63EA1DC4DAC388C0DB59891919181E13703C34FC61F0CCCCCCC0C7F98FE30FCF8F9938193919181958585E1F7EF3F0C4F9E3C6590969662E02461F8183541A0B61F00000000FFFFA499D10E80200845AF39163FC1FF7F185F21D5D68359B261B3E5138FBA7BC103FCFE028808CCEC28D597FD07FA422B0CA0AF
310
27DE5116BFF6FF930670E7DAE8391320C8FA48C419A1EFB8DDCF4362E38EB427142BC839E358EA889A790511C13683AA42443E99A07BA4E387130000FFFF9C9A4B0AC0200C446761EF7FCF7A827E32D385DAF8815A14B2314188090C7964193E0BC21642C6993E26D54D5034D573ACF556EF870D7713E30FDF574C6F65EDCB
310
B7804B33B705C5ECAD3A17F67E8CF174B949A328617786525702529260341CE7098A191819F618574BD79C070000FFFF9C9A4B0AC0200C44C7B1981B78FFF379001786942E54A462BF6E26590812CD53067F13C0D323888024CCAC39651DFD1FB08FF57DBFA2C1BD8E22BF9F33D4B51F3D2441F617BF9B3ABB1FE673BC24C0
310
030D660AF4BC2E06502A36AD469A27B19B414B4110814840CE192925C4185FEDD7D538000000FFFFA45AC90DC03008332474FF41B34129F491435173A86AFD361FB02C0B7912027BEB5D0F4A8C606698597BF478DFB35AC207CA54001D6F77F0BF87AFA8650E626EA1676FF31F05F0B0FE4110EE80021AB20B6854040E1061
310
5C66D0532147EE17A49440444504E35EDFE0060000FFFF9C9B490AC0200C45BF26C5A5F73FA3276831A40B67895DD4951814CC8B3FE26028C0F7E64F55C144B89AF48BC093874E1F05B6535E6B90C566435901777BEDFB07F89C9E30B5BBBEF2CB732E26C6837BC8B6096C07DAE6B5D6CFD03152CA160422D2E167C920A11A
310
9CAEA86DF6602E37AB292584101063FCF2F8B1BC000000FFFFAC9A4B0E80200C44874A2CF73F25DEA1A52E8A0405A326B2817445FA795DCC7C5E01448495B929682E58785A9BD9B26579FEA553A127A8EFDF7FDC6F287034C1426EE64408B0A223F2AFC5BC69907B72CCA7BE8F9919A255F550041A2394B4AA9101A2022277
310
1D6B29C879033323A53490EDE9EC000000FFFFBC9A410E80201003BB35F20FF9FFB3F00D18B2091E90450D62BCC8853BD30E977E0E40DDBBA594DADF6FAF08B455C4731E7BA0EF0AFB03FCF9AEA34EB2B48B426856036610DF02D03542A7F9C310140B0030ED538A0126123913AA0A11819B1DE21611C20AEF978347BE9470
310
7476000000FFFF626124A6DA86024646C8A0042CE090A72B21E620AA017C7512A1461FB21A7A2400B8DF9056F432313331FCFF859E9351EB7D8A4A010289E0D7EF5F0C9CFF3819FEFFFF0FC9F17F2089F32F333303D37FE822963F7F20DD70767686EFDFBF33BC7CF98A415252828194A16200000000FFFFAC9ABD0E80200C
310
840F69256190F77F489D19F871A104047411269276A0F705480F9276E47A48B150EF48F1CD0580E683759F3923E0E3C87FAEFF16FE0D02D91F33C31803EF7DF107D6828F6F037462CE81E8639E79A9C0A6CACC2923C6801037E8028222AA2EA62602EF8CF33AE1DC016B6D57CBA111D494FA060000FFFFAC9ADD0A80200C85
310
4FCEDA93F8FE4FE5431879EA42B34CE907BA1BC260EE636783EDF53D00C022F74BBE8B2FF2DFB26F92DB7B7BB2BFCE04BFCD0122D069AADBC08DF4F780F6FB3E4EF27FF5D9E364029ED7C4AA0A0C0073D54712122356636044120712A3B5984380F71ECEB916C6F1CBAAE037000000FFFF9C9AB112C02008435339FBFFBF6A
310
27F5AA74804CD6EAD5998917950BD99A01AC491673E6D68CCEDFECF6CFBE803F021860F92BB2250AD6AF6A400188C7B923E219516AD902FE067480FD3503402D77A01DDDF307B5548345834AE1E6113B75A0ABE26E0D12044104295DC8392FF7053C0F000000FFFFB49BC10A80300886BF5A0BEA15EAFD9FAEAEC56A731D96
310
15416397BC08A2277F7F51B41800C6A451449F22F57B361793B3FD45FFAACB7C006EDF6B1C34066B1BFAAE675D5676BF1782E0CD0E14808054F53122921840CE0DA1B6206B5B6A3D4E49D027461009408584C0261B3E789C734CF3CC380C9FB979CA010000FFFFB45B410EC0200803DDFFDF6B88851D70844CB69DE6C998E8
310
41A425D21E4963B0E570B862CD428C709923E3016CC95F677EBEFCB779DEFF5FE0EB3535378836666ABD477753441E8AB76FF82FB9FF4601BA605F2F0A58E7022035F3CE60420140C948BC4260F6AFE23142C78039EB0014E3040000FFFF9C9BC10A84301043DF42A98C82FEFF97AED68E7A98B66BC5AD60612EED2510921C
310
9A7125E3EB1F44C000A86A5146AE4FAB2ACEB97BFB3F596A754EF7FF14DF22AEF5F626FFCB246C39DA62AE83A5ED1EEF3DDF7966D35893FD60FF46FC25126E22E0AA7AC39814BEEF2C4BB096303F07086B8090FA8C51E103433F304E239DEF1011EB1388345D1AE0000000FFFFBC5B310E80200CBCB092880E8CFCFF6DBC41
310
7A71806231DA51920B0B53EF5A52B8BA57004988C8F4F5E9E3CF246404CF30F4D56DFC5AFE7577893710E30954E8074D085D08ED7CC97057040F212C2218B059CFF58C2E91763B92D109D7517592485B422905C7B1F76A30C6DB6AADC83923C6E88AE0020000FFFF9C5C4B16C0100C9CDA70045D70FF83398428795DF83CB4
310
F5DA5A059BE44D6662331E1BA0677F95FFF9DB946E8331ED697D647F1FFF033E67B3023E3FB4526BF29812B858BF13338E10E03D0100945420A241F6AF0C7F798E1BF0EB7D37FEAA1A1385520367D772C84E65B109E85DC31A032965B3AFD77A638C70CEC15ABB5482130000FFFF8C9C4D0A802010851F7908570976FF7BD5
310
01C44C1A6B618E3F88E94A0617CA7BDF208C4ED700C949445475BB28EF0325617F6386FE91F8BD58256E9C4C11CF8F3F4BE25306483F84BCC7E91CE8A62F032CB9BCDB23BE8A8F8CD08AFFE47571C749013EF7E55CA49D02F72A104240A915524A500830C6B0A981879B53586BB11F0736AD73C1AE91EC050000FFFF945BBB
310
0EC33008BCE02195423EA1F9FFCF4B17ECC8C1EE40C8B3A9DAC18B174BDC1D1CC85C3683DC14BAF2F7C1F4E011859F09F0AFE2BF81FD09DCCB1D4EC0D4FDA74FEBAF759EA15A508A42B5AC8B21D3940C785550D3A0EB18140829463357AA3698B953FC0D11B673ACF5AEFA43EA3C19B19C33524C28D508D0738F6178829921
310
22AB21F72ECD93348580B67DE0358E10916538B4CD00EAF2EE1B0000FFFFA49CB112C2200C867F5A1CEA90B34365AABCFF33D93760A6C16BF41C2C0888E720036C0C7CC9FDDC7F499A9D41D1E9AB35EB3D16A55D275FAF7FE0D7607F9D2DF8F7ACDAB7D4F8470A844D04B710525B58A73A9CA709C61810114404CC0C22C275
310
59C01C76DBFB13F2D7408819BF0F9528E0E7EF9FED49320178EFA10F1AE369C47C99711C06AC2B436403A0A0F5CB9657AA43DFC7BB55FABB39E760AD2D584477F0090000FFFF8C5CBB12C3200C135CB3F101558EFFFFADE40B98D225CDD91DCC23A4A457260616232C73B24FC312503C718CFE5B6FBC8940BF35802B90DFC0
310
B610EFCEFD4DFFD78FD580E67BCA971C9FD5F8FD6DB5737A4C88316226AB945A6D618E032104F0492CEBD24D3FDD67FBF90148157846E03B18F51A6C5AEFDC7B6F828E03661224A1AAD8B6576E16691E232FE614B6171138B429ED94124876FE0B657D000000FFFFA45C410E84200C9C8D7AD15492A58986FF7F8E8B5ECDDA
310
5DF7504090ECC5E5099DE9740AB43F3D401DE852CAFE23C09DEC07827055F5FE04E053993AC9325F44B0BF7407407CCD34C6C0DA27981944A4B3FB09F83744F674F7414460CBF0DE976A73ADF18988B9EC5F9D7E8CF581239200E79EA2A66931F4BA4D6434239C7310116C9B4E2C3F024E45C508BF9AF2D375DAC62ECB8A79
310
9E2A9CBE000000FFFF749CB11283200C863F4DBB58ED641DEDFBBF5DE59005950E1A140F06EE200753FEFCF70D218900AA0ABC5F129ABC8A41ABABE400D7CA4EE3A5249FF773FB701E8AB60F64C14EFFFAED23DD8E8A3F206A5D57DE5DC7387E19860F2235DE2F38E762B2EF0B40A4A6EF7B8C31586B63FBDBDDFE95EEB72D
310
6FFB21B256D2BB0D9502DC93AE6D695E0DF3EC908744000CFA38E9633CF2C7EE1A0AF1E8A43211A6E99715C01F0000FFFF8C5C410AC420108BA5E8CADAEE45F0E6FF9FE7452C156A0FEA682DC21E4590C168662662060660F43DBABEF48DD43A63801923CC007FCFFD71FB7BF081BCB9A56DAB603F818F38CF88700412B07E
310
FB0E6B2DB4D6A4F285103BE0AF92365AFAC80A5BEE0684E030C6D09A35BE57A157812737B1A1026F4C4FC38531702EB06D0A524A78EFE19C83525FB2A7A982507324EBED6CDBA1B852C29212D6352B9ABE58DE48F979C471030000FFFF8C9C310F83201085DF9D1A3BA9832676D1FFFFBFEC62272BD646817610E8699BA603
310
616039F2F11E5C7287C802287C8B768420D5668CBCFFF6407FC1FF07B884FD11835B94F66AADE8EA15B35E359675C1639EB138F0E7BA4659963BF04AA9AF6A0F6D62DEC6DD8B792B1889501439AA7B85AEBB047C47CB7F8B45664B07EA6EBF84278819697A429E65889318C370C334291011F4AA61AC0DF0FD60DE8A58FC01
310
20DF5B0042C4CE8998112709CC38A2EFAF68DB66C7EC050000FFFF8C5C3D1383200C7D89B2D881C1DE51FFFFAFAB7775E38E2A4807084687B67B8690072F9FE49405C87A14638CA2D7DC72E0A2F08E94BE67019ABA7F82AC64FFA17C01FEFAA53BA688B86D65F74EF5F17B4A784C13EEE308E71C88E804BC8E13A40E901570
310
D297177D0900778C0E3D9C730821607ECED515E897BFABBAC171D6AB8DA8D23931E3360CB0D68298B0BC16BCD7B551BBF8FC227B4C2F13736382C6022D0E60E4DAB5EDEB8C83F7BE5D1481E3030000FFFF745CBB12C420085C9B34B1D5CBF8FF7F48521CEA7905C4574CEB30A3B2B8B28A4E39C0A8FDB57B9990B6F5A78273
310
45F10AF807F893CD9AFAC5B2A7FE5F2983944B5A3F9FB348B9FBE4EECBF2A1D3717CE0BD8773AE02CFCC48290F14DFAFF806784B2CFBAD07909C5DA87A4308014404A213C6E0B1F25103E0E5759511F966F71DD65A7064101122C7C1B739ABAFCD02FC1A044D44DE77374519406E37375CD7096656352023FB030000FFFF84
310
5C4112C2200CDC302D07DAAA4FA8FF7F91FA0B6670606AC10304288CF508A7B09B6C42603254B6FCECF0D56351F951A897F74CEFE9FEFFBC9F404F0BAE3D8E11CF933C12F1CEC1598BDD7BDCAEB1375E477C21FED35D0FB3D4B7A485D0D9C4401109080A504AE1BEAE783C5F781B9395A0384FC1B641054402E33860592E98
310
A709C61868ADE3C91B6FD9B6D80E169CF313E95CF01505A003F979B279FAE7B87B0F6B2DA494B933F8050000FFFF7C5CC10DC3200C3C68455E49783000ECBF4F3A46A350A941A1A58F603028EA0B2130823B6C2C63B8D304BF2935DE3F9D56DCF93B57239AC1FF925F1B2F08AF320568021EC826B4F3EC33E964EA4308D8DF
310
3B8E78609E663867618C2949ABE563C77C71C2E3FDFD19DD6A3C95171B20250632A0B586B316CB63418C1F665E8BEE573044969712C330601A4728A5B0F90DDEBF08DEA63B554447BE60E49323C8A3B8000A3FF276268B00C0735D9B67E63F000000FFFF7C5C310EC3200CBC04589852A9594995FFBF28F943BA51429BA403
310
364620850D18B07446B60F739A4FFDC608EFBD8480C2829C09B3B3D02DBA53AD68C12F002FF66A47282B8EACDDC37DF2BF047CDC23FC2749AB1863F09A2638E760ADCDFA7EC7C1C2CE44F9121B780F7C5D7AD2BA182DE0501276A1C7383E31EF339665C5794A7B7CCDEAE11272E7310C505A61DBDE082134E1B4AB26FC2691
310
416FC0AFBFB74948EFBB2473A3954EE56B31FE000000FFFF745C3B0EC3200C7D7C26A2F4027573FF53A517606824A620950ED8160E0D1262C083C1D8F83D3EFA32A853BFDDEA8257450D2532B85F8E85EFFEB59BC2FEB418EE8D3FC23A13EA199E4A821763C4B6BD404458960E934A290AE78400528F6FCD24785A59916B7B
310
D5DB0CA97D15877BE7001F404F42AD15FBFEE6999B037F080129253CD6157040CE19E7595572A482C7A2CEC757C3FF1BDF6E035DDE2206EF1D8ECF31E401C00F0000FFFF8C9CB10EC3200C445F02D9C2C20F344BF3FFDF46CA5029810E60E19028EAC88284CFB68EF3C956821F42E03812C60E54638902ACF900C51790522A
310
A61095B97F91C09B764F3ECBB7A2C069E0BF42F0EA0C7C5DDF78EFD9F722E0C83F5F0B41A93A6AE8417F00FEAEDA2FE7FA8E1A6E86110C23CB6B01284990F32936D36499E719E71C3146B6ED5356D1E8CABF605F1442D93BDC00EFC05744B02581BA4508A431D0CD717E000000FFFF945C4B0AC320107D634648415C790069
310
EE7FA4E6168D2D14A70BC789B449A12B3782CA1B9DCF7B23DB043D9E74F495F000114881698C13594368AD82DE13FA4F0CB00759DDB834A7EF9DB1AF46CC3CB52EF1506A36848065B922A504E79C017F54BDB3A7DED63AF3F33A0E7B3D03FDDB3064176C1261E20939671008B775357FEFBD478C119779C676DF5AB027C32D
310
FB00DE52BEA60003330FB2B05FE03BFDD84A8DE7203BA82228A59868F40D0000FFFF749CB112832010441F03A1B1C1DA31FAFF3F674C23642624C58122624107C5CDDEB27B706080CA1445F60C4841C634276B90D626B5297F41E91BD69F93E20ABE0CD9EE731D9F74FE23066FF39B3C867C188669E0398E745D470861BF0A
310
3D819F74BEA9ED0D9D2F81BE677E1547B526335DCEE5A5737A9E27949224B0D6E29CC318CDF25AF09B6F805E7D40A90E10E127A46B30FDF004A529BC96F26512C41859D7377DDF03F0070000FFFFAC5C311284200CDC20D65E49A3FCFF75145E213A842B90104E6F6CAE64683281EC6E7632B144106EFDB5989015029CF115
310
0325678C0F5EC01DA73691C722D68EA3AFFA3DEE606638E7302F335ED3243C5FE1BE28FC84C4099CB86BC18A7BF71FB8EF0F570AA3B3D289089401630678EF61ADC5FA5E0110420832DDD332A6A05ACF61D43B54C16994F0FB7E7C23EBEC9A3E501F40B5F695B662DC24820F000000FFFF6C5B490EC4200C735B893E62729B
310
FEFF417C63AA42A5D2CC81601671E300521483E32CF06750A6E35EB533255125AD162355952DE33CACD83BAFE25E059F5A886125EFA9E0DF16E7430C785382733B8EE30B11018086EE733EDFB67759A81A299FEB6CC79CF627804F5E7EBFB53FFB025852223D17D52EF2C1EF3CE1BDC775853A5D353482087801BFBD14BA60
310
770EDBB6D2F723F8ABC5FD510714C7B39066223E5AB91F00FE000000FFFF7C9C4B12832010441F909529532E63990378FFD3E835CC2A9AA2B3403E129315AC80A96EE8F95073899609654D27E4A7A5608C81542489801B63113E49C3BFC450C9C0085C8AE7D78DD7BAC7F3DB8610F7BEE7310C745D572472DED58DCFDEFD6F
310
C075384B3DD6A07E817D32392381D25E42B2A92E8F815BDB328E23F334B33C977D2D7B003EFA1165F898755C34D706EB1C2A64B8949D408C4CA22CE5A4D7563E7420110A3F8CBCC739C7070000FFFF7C9D3B12C3200C441728A1A7766AE7FEF771B80433C0A6508CAC38E404307AFA212198750011E0C0A0976F58DCA7474D
310
401C479FD78FBC972A96246EEDFE26E00FF8E65C7F5A7D95D0536B45EB0D31463CB60D3967905C2679675D4285AEC0FFBB7BDEF7B7266E9561A13436DC48CD41A68BFC849152C2FEDC711C2F9452404A4B1DC6622FF0CDEA4E8DEE1BBE53F00074788457E5E7F4947D74C322848037000000FFFF949D410E02210C459FC68C
310
6CD01BB051EF7FA499530806A42EA450758C71416045483EF0DBDF5276C0C87805BA0F683900A1D6CD780FD016904B0179D6B6538BD5F2BDC8E7959F55C54B37528AE45CD08C971002DEFB1EFB1EA7BE18E0ADD4FA47FF6503FCC07E15743B8752E768B5894FDBEEBA49ADECA789CBF9C4F1E099E7856B8C6FEA9D01DF8C05
310
70CEF50F30D7051FB5135ECBD32BF81A3391962974AF83CE1F000000FFFF8C9CC10EC2200C867F1CB799C9C1655EDDFB3FD5BCB9701747A9870E6C06313E4043D29F86F6CB4F2D33C37B0F8A11C65A00099C0F6FF4019900024057C64192D52A2AC13A1944B198324278E315A4EA2912FA738FF93E631CAF60E602738AF80A
310
E65433FC9FA2B7DFEE5AF11FFA1F621B8D262BA76F926AEB28C15AF96BC8BBAED374C3305CB03C16ACCF55809AB2DEE170114EC6C039D7843B2AA0AA7EC6770DFEB60953C9C616CD273E000000FFFF8C9D310EC2300C455F05586D97CC50F672FF030117A02BA402C2103B75A98AD833F95BFEF6B71DE732508DF9D62CD153
310
80E50130ED0AD804AA881063CC7BEA4A03CB90FF72A5DD83BB6AF700FB43E6FA104251F88A92E7BA76FF0B38BF405F0BF9ABD07FBD9D73BE39E052569E9C20772FF56ED076A3FAC993BAA939F53DC7AEE37CB9320C375232EDDE3B02C84E689B7606BE5779AA8AF2B185B77F52F0C751AF9DD94C819B1F00F8000000FFFF8C
310
9D3B1283300C449FC74EE014843EB9FF9D481137A40124A5F00F68C2013CE3B1646957B2BCC1950333C5D451134B71598C220DAAB41270058266ACE5070BD74047ADE6AD4928A968F188083E781EC3C0388EA82AF3FCCDD4AE093396DEFCB9277F95D6FD037A17EC7F5A7F8C3C691F39D7EE6FFF1E945AAE7388B089E796E5
310
6DCD401D091BBC9EC44F647A4FC418914D487A1A29A2F67D4FD7DD3950C66A9BE4143E1BBF3D62D1CAAC963C48B2AC0BA6860F1E53AB135E3F000000FFFF7C9DBD1683200C85BFA01DDA73EA8275F7FD5FCB8E76B4A76AB043403C5ABBC2C04FC2252137A134A858560A515C232276FA45F246A80A224A51840839F6BE6D50
310
3D23B19C99056FF25D9FE85341035575A76D5BBCF72B0369FB23E77F23EF4C0976FDDBB683904F8CBC53F9EFC63D40FF0F1460AB083033471ABA525E72E9B7699A70CE51D79EA679300C6FBA6747DFBF18C70F0B0BD7DB351A8169525911523EC05EF896E36021F2E445A95A312F278E10BD37802F000000FFFFA45D310EC3
310
200CBC380CEE96EE644DFFFF3336E25440070C06B56A87AE4858883387B1CFC2B50442C919594FF1A8543527A89B901AD88BD3AC60FDA15BE48273AB49B2AE7AD78FCD0B7EF7D8BD073323C6F846F9B5554BD9E89F20EFAB03FC847DB231D1FD27E031838F61DCE6435542D68FB0AA5893A8D6E989087C633C8E032925C4F3
310
440801F76D53A66DB598799D1618A3BFCA9EFA2399887416404177A4A5989117000000FFFF945D410AC4200C9CD51E5A5AB62FA8FF7FA025A06DDCC388C46E29F424286820D14C46920C1FB0F013E37943033704D8E380520FA11BA02B483923C688711A99AB9E1244D8734F0B3F8DC21610C2C6277FDF71B45EBC96BBBFF0
310
F7AF466B08BD929FC1DDFD8235B027C577F37FC66264AA7B965391B5A273EF6BD12D72FD7A2A9C67E3C9659EB17E5738E72022EDF69263B8486CDC6E3E98DA66C935C6FC83E16B4AC3113F000000FFFFA45CD10A80200CBC4DFD00FB03FBFF1F0CB47AD09D664144820F22226EC39BE7360F58944F2582440169F3B4011E06
310
3820C8523D57D78A2A861078CD8B081D3A7B03A735618991346FCE99DFBDB7E08CBFCA1FC65F5A5F3B61FDACFC17C53F43D1BCD741D8DD4B816A95A7770E5A6A7D60830793B3B2BB8B1190E51BA8714B7CD95A5CA4B6C25774EDA4E70F9C000000FFFF8C5D490E80200C1CC02392F002F9FFBFF013027A183623014F1C48E8
310
84764A535AC806A02A03910341BAFEC67ED1810F0190F202F28B619B52D8B586F727CF244121D65A3877C018F372F905684A715C8AF547D953D7BF3200F1999FBBFC11EB178C1FE2E8F75254053249C31A08FE3FCC57CAA46CACAF8177192BE6D6761663E2A55A69ED4B6C302989244ABD81BC1E003C000000FFFF845D4112
310
8020085C663A684FF0E0FFBF58197450508BEAAC33228BC0B0232CA04A37EAD7A5EE01C48C0042C335042718DB2E167B8E5210E38A102BDD1962404A0939671060048EB97CD609DC4EA2F702FAA4E087A2BF62BD87BFDCF6CD207A40FF016F120CE8EB1113D3E719425B6211A0D53D50C87A03AA21507B58BD38D365B366D3
310
5CE71A13D54F21569154819AF168F278010000FFFF7C5DBB0AC0200CBC8A5BDDDDECFFFFA120C60E466B126D16110E0C5C7C9DC178A0039B5E01C42170A1BF71FE7B2928AC008E2C9E7007E49C1163C493126AED8598D7926C5B35EF40BA20FB877CC1BB0E00BB657E183DFE61D6DB3E4C2B82F0649776671F08C38808A086
310
3A711623FC065F0B597370CE2D0FCD6DFEE1E959C70180170000FFFF845CD10AC020087490CFEBFFBF74B1E0F6A033B5DA9E8A0AD22E8D4E4B3382F4FBB1EC013C19A42A42932BFBDD355F5D846A97C4E89999EA59A72B5E5FB8FC81C1B77BCFA51B6A686E171FFEF88AED79630D4BDF59FD0FF0D1E45D75063A82B9EAA740
310
C59BAA409AE620E18FE21B0109083A41F0B2BBA052D8E2370F000000FFFF845D410AC0200C8B32F1B0FDFFAB3B8C991D566B0A6EDE2B2D2426058BDD00F84EBFC686AC0A408248269963C7DEE513B9276E1B0D2389520AF6E31D71CEF6B171F77C97FC7EA31484192040889B7BEC027C44B78F40FDCBB9122134785ACF5772
310
620D6E0071159BC79B819E122275C22484C0417E49546BF59EE0010000FFFF945A490E80200C9C122F5CE501EAFF9FC51B68E20278B02A5242622FD0362184E9F4307400006B2DEE593FD45A00C9E3A402FC6D0507C67EECA20318CCCB84D139A418E1BD476086217A46C7DE1FAAFFE0AB5C11AF31501DB25A358B5B0CEFB0
310
BE3E4C193576E235C1250D64A72374F39FC2286F910B3F8BB278D9090000FFFF845CC10EC0100C7D46626147FBFF5F7473916C87671BD686534BE5251E954ACB01682F53FC021616D8D04701F4BA249F4518A53055CB3A8B2332CC3B53E29D5F2B4288C83963DF3D80A75882E07FF21B89D20953E7E8045C8A3C63EA6E7DB4
310
11F185662665452E8671C87D12B98B8DF259F68A1916C37BFFCA37000000FFFF8C5D410A0021089CA1FA45FF7F652B7B48C36C5BF424358760C41141AB80FEEAAD5B314940B4D2B4625944E65CBD76F6C678D622C5DEFB5A57623DE852E6383309D4D6BE09F77E222032E41FA70E1BB3C99574C5FD6ABC59643D5E5EB47E7A
310
27B9DC20B72C9024DF3D873825C0EC050000FFFF949C410A80201045BF59D4C07485BCFFF144A916922DA6B232A3562E443FE393F98CA8758C119552E8DA16D6DA53B921A12F4BDC3C7FC6384D0821A0A91B504730660033C33B87FD3A949C122A10119C77E8998F5734AFE9BFB4F01FE097A09F863F6894AB8FF7547F077D
310
E52B8DBA3348DE9CF59737CA1F0B48F2B9B6CC2E5169AD2FDFC8AE000000FFFF945CC10A80200C7D927550EFF5FF3F5747838284CA0E9B62D88A3CEE5D84E736C7B69747799C7318C70967C36BC891E7FE766EE8F0AA75D79286EE30F430C66259A993A7A0A035D596C771C25A033F7B6C21D0A74320A32206A8F37FBAA490
310
F745ECF3713D616F811E28255C4AABE8D915AF32F9AF9E8FBFE4DF000A013166D998742E000000FFFF8C9DBB0E80200C456F141C1426FCFF5FC445127904070882560253C3C821B7B4346D290913423CCD1173E2C087507EF3ACB36950D4C2B12B0529258C3971590BEF1C62041867E0392298E6F43ED0874E7DF819A3E1D7
310
87DEF3B99DCBD0587FB29FED0F6852618845307F6FB7C5DDA3A0C7E0D7FA3F049FE41FB1AE5B33C9FD060000FFFF8297007C7C7C0CECECEC900DA2D0A1E19FD079FC5F3F7F414FC7606710161161101515854EF522067960C7993330406E1483CC037033BC7DFB96E1DBB7EF90858D68AB8789AD16B05501D86B031C098694
310
848506E0018A25E3E3CAE594453E666982CCC65ECC13906380965CFFFF33F0F2F2A2F801000000FFFF9C9DC10E84200C449FD9C22A12FCFF7F5CAF8B078D1E0A898BA8593937044A679A36CD20D9D01843D7B6C46F0421A9684D2A97DE807D5B9C730C21A80843D479BE7999D34CFE9A5A9080B534C04B843004C6CF88A43F
310
06B3D7AF727EBDECAAA1B4920E0EE83ED9A7B03FAC13C4DFA1F4DF877ECA0625CD6BDC150CB43FF7AA2D65EFFB9F6B6D000000FFFFC45D310E80200CBC0E84057580FFFF4F1619988450874605C438DA85A4C776B9B469E02A8ECF90D9B1750EABF760E6CB50A9145956A8B5867316442416EA2921E7D48C750B17600788E4
310
3F3A98B1CC33C21610638499CCFD82B8277A707E9780510C7A8AEAFE48EBBD5ADE516AF37F935F734C6D9B5963A74C94528F6D2207000000FFFF429C16CEC0C0202424C4F0FFFF7FC42A923F9055C06CAC6C0CFC7C7C0C6C6CECD0593D48E4FFFD87BE218381E1CFFF3FD09D2A6C0C90830B5918848404199E3D7FCEC0C40C
310
390A05A5574052024030F055D7C42716A8345A66410423720E23AEB826560F35229F608900F70764A289938B0B63093F000000FFFF9C5D310E80200C3C8C180914FFFF455C3B8889C1A146053418994A189AF6B88381D26C36790F72843007F9861C72B1336684B50E312E887115F0CF52AC2C95D8904405A0A0750FA53A10
310
79103398F9E8383A9C2F583F2BC0E5228FEC7E366784AFD97FCFD1653EB0FE15C83FE07E586F015B4A7B7323D471A524452AE5D8010000FFFF9C5DC10A80200C7D36A8BCAE63FEFF9FD51F34EA9075D0594689E44914863E9FF29863CB084044706EC434CF3000281627ECAD85F73BD6754BC19BF7EC598AB27653E9751374
310
40630C0666C822101100477010C59595FED39F14C836A8534A822F417807EF45CC65764B37BB6A2C19A93CFC3AF7EE9F57E082E240DBB560E614E8A3ED040000FFFFA45D4D0BC020087D31B0B10EF9FF7F64D7AD067307B7A8F6C9D65110D1A7601AAF035328332B28465F0A59225822C49890E6A45BC04C1973D384893684
310
04005D07220BCF1E21048C93412FCAB8B5EB5CCFDB8B634AB1D40E37F6CFF4F21D3E27C15BA03E56EE5FF073E59789F66CAF8DCA220237B8EDA3EF3A342B000000FFFFC29A00040405183EBCFFC0C0C2CCC2C0CACAC6F09F01B27BE8F76FC8993BFFFFE1AA541109E2DFBF7F502E23031B1BE49C1A010101862F9F21275531
310
32422E3D842C5640443AAE0E19235AEE856E5C8368C2C8FD487A600E624491404B36E4443E23A65E3897889281889C8F29865F3DA6BF100076A104FA1E4E00000000FFFFA45C410A0021081C0B7C4AFF7F9F1DDC8366A12D2CAC3027E9A2624933961D2FCC8C3186395B0308F12814992630083D7E86CBA29C9AB498C12226
310
E7EECDF6E910082233E8CA7B9DBB7F1967A8624BBFBD53383923AE8E136EB598CE08E504BFFBAE81473D4BA9607E259F6EFEAFC9A780C246FC3CFF2F7B000000FFFFC27A58B4BC9C2CC3B56BD7E099EB27743CE0EF9FBF0CFF19FEA3050C4AF0A204F9BFFFFFE0ED0106460606061656064E4E4E063E7E48D7F03723242261
310
EB0831CD43CFB6FF2143D4D0154A8CD0F58AC8118DD61942682598BB91F4E3CBC568C532692D7822D4923CDE8F99309199FFFFFD870FF2C18491E308000000FFFFC29A003838381974B4B519AE5EBBC6F09F81013E26F0FF3F6AE43362B110622B8CFA8F54153030307040B63A09F00B307CFBFA8DE1E7AF9FF04522C8CB97
310
30E31D12E9C8342CE21991FA709869085F4EC6174138221F4E123603591D5673488C7C94648D2FF291A8FF0C90BD85C2C222A811830400000000FFFFC2796790AAAA2AC3E7CF9F191E3F79023DBAE50FD600424B0628009633FFFD829604D0128595959541584498E1F9F3E7901BB2A19B16991899E02E6764C08C746C8900
310
15600B70DC62F8229F702EC627874B2F213309A845F1223E3968F8FFFBC7C0C7CFCFC0CBCB831427A800000000FFFFC27B6B98969616C3EBD76F18DE7E7D8B3350F125008485FF18FEFD82F61C20491D5215F0F1317CFCF89101B6349A8119621A72E4E3351CE104342E72AE421743753B6604A0CBE15647D7C867C466278A
310
0791DCCFC8C0C00039B6460C7A542E3C1418FFA3F40400000000FFFFC29B003838381838383820AB7F98995172206C912103C37F94C50658C17FC8A6F3FFFFA167E43032327032723208F0F3232D2D832C496366C2DE1E803A1F6B2EC42E871C5C98114C7A4EC616218CE84C5431343623AA42A2F561442ECE848160FD830E
310
C3234E0545F239522200000000FFFF9C9D4B0AC0200C445FEC0DAAF6FEC794426D17FE6BA0D22C47FC9038300A8EBAD36317D6EE20FD47494D9517DF1955B94F2AFE265E91333B9286103066C3390B50557ECC2BABC59D583BC71ABB45C77E165FDB68DF0C6E58EABF700934CC21E520D08D39B617CC88E0FD313C057F650C
310
80070000FFFF229800A4A4A420B9FF1F62A006BEA61FBE6C1A09638348EAFEFE855C6CF8F5DB57861F3F7E40CEC8E7E747CC28229F4C0E85D8230D3B8D2D41604B4CD8731F151304C9F244B03112375A02848AFDFFFF9F8197978F818F0F7BD70F590B000000FFFF22980084848418E464651002F0BE36EEC84660681A6140
310
6A7CFC87AC18829DF5F7EBD74F063E5E483705B25D0C3A1E006B31121BF9707F1193309042808848450F74846E7C89894479A2D8B8F988C88724143131511CB91F25A41800000000FFFF2298001818208D418C3304D19B935807F0B08CCE3042C4610B4EBE7EFDC6F0F7EF1F0661116106760E76E82EA3BFF0EE23D1918F1E
310
894834DCBB387325FE1C4BB0FEC7484C686C528B7A52239F01598C8141187A011641C0C8C000000000FFFF222A01080B0B33E8EBEB614AA0C72F96F8C66E2FC4B9FFFEFD63F8F5FB17C3D76FDF18FEFFFFCFC0C7CB075F4D041B69441E7822AE6867440438C6A00D0303034EB3B0C9218BA1B1714412563DD803812691CFCA
310
CACAC0C2CCCCF0EAD52B86E7CF9F33BC79F3067E130C6C2C07B147839101000000FFFFAC5D310AC0200C3C53AB20F80DFFFF24FB013BA52E857648A916541C9A3164C91D8124E4C8700AA82D84801837A43D41F592EA9AAA40AB4006DEABE39C33ACB570CE810F9675F2758ACC492B10A84D3EDABE02E328BEC67182C8898A
310
9FADEC3FC8FFB2208DBAD64BF92E0659E231B3DC691261350678545CDE7BDC000000FFFF22AA04606080A42C434303062646269C1336B800239C80B91DEA01D836E7FF9044F0EBE74F060E0E76060E0E0E06462646F83E83BF7FFFE29F2422902070CBA14704448CB88824560C3B1B256CA810F90C0CFFA18751C1D6F932A2
310
842F030303FCC6901F3F7F327CFEF285E1C58B170C00000000FFFF223A013030407A049A9A1AA4684173263C161890BB650C0C90C6CBEF3F7F187EFDFE0D5F85043B350376E50B6C568FE4F1001C72488E41514F7E8B9EB8C8C79D10D0D9442406A4C8E7E4E0C458F1831AFEA8F8FFFFFF0C00000000FFFF22290130303030
310
686A6A32888A8A92500AA0E72844C4C3F6BB33229206C33FE8B574AC6CAC0C6C6C904400B9CDF327D2A516E891C080268616D038E4085705A4473429918F9910B0254C3C7C28F8CFC0003F8A0E7D62941006000000FFFF22390170727232989A98401A6B44240246341A1EF148109E2419600B43FE33303142CED967676787
310
1C60F117D26BF8F3FB0F6A6F04236209E458AC7224D4C984AA08AC1148091B071F0EFE33B030B33030B3B0A08CCDE0C60C288D7400000000FFFF2239013030407A0506860650EB892C0990221D290B42130452626080B911B2650D960858595919FEFF832E58FDFD8BE1EFBFBF28E622D34812980902450EC3817822039150
310
F05611A8B66092548E7C6616C89A4D48D14F4C5C405300344100000000FFFF223101FC872F28D3D2D460303234841B8902B045024C1C4B0980D19D8359C500491CACACAC0CEC1CEC0CAC6CAC0CFF19FEC30F9F80CD22A2E863404B100C58DC82357289890C7CF2986CCCF020511FA1C8676661E0E0E080ACA7405FEB452400
310
000000FFFF223201C08672A1E9076A999A9A1A83B4943403AE94879A0E9073396A09802C8F1C21B0C40A3BEF869D9D1DD22E606262F8F3FB0FC3F7EF3F50DA059891892E863BF21950C4F0B1C9CDCDA806E093C79DF810F1C1CCC2C2C0C1C18EE58E67CCD21EC78229060606060600000000FFFF22900050231E45E63F0303
310
2B0B0B8385853983A8882803FC883706745B50733F8289A504C0E906887A582240B40BA06710FDFE8DB808095FEEC68868CCBC454A0E253B21A03A0305E00C062499FFFF19A0174961CBF948518DA31D809C5000000000FFFFC2910070473CBA559C9C9C0C9696160CC222C2180B0E11CE460B3574CC802D9722620DBEF68F
310
01E27136363606760E4869F0FFDF7F86EFD0DDCB7F615D455C399E014D0CA9304211243A3793570A608409466EC7C28787F97F78E44322114BCEC752026002880C000000FFFF62421640310CAB26747510CCC7C7C7606D65C52020C00F9FCE457637B61C8F33F7A3862D6A40407DC3C4C4C4C0C6CA063D48999D81919181E1
310
D7EFDF0C5FBF7E856F6743050412045AA2203E12D1CD279F8DDD2C8C9067606662869480CCCCF06C016B34FF4789726CB91EB3AA00000000FFFF624216C00D508B0E0C596822B0B4B0C04C04687EC3C00C68B91EAE101B0D730B03A45DC0CAC2C0CEC1CEC0C9C1C9C0066D20FEF8013D9FF8CF1F0606947904061C1180268E
310
214F049BEC9C8F1A34B8C17F68E43331B0B343EE0FFA8F35CB136E0BA08423C37F0600000000FFFFC2D30620A64440B2F4DF3F06616161063B5B5B06116161C86D97FF1950C214AB9719B188A2E456549A81014B95C0CEC6C0C9C1093FFDEAF7EFDF0C5FBF7D832C47877517498A5C0612D4E28F3AAC00470EC725011BC767
310
636387DC1D8467CA1D11D1C494040C0C00000000FFFF6242B20543123B406B482044112581A50583A8A808C35FD88A60244FA1F6051851C4E1B18F192C986103B190013E68C40639B686939393818D9D8DE1FF7F4469F0E7F76F94E5E90351C4132EEE31FDFDFF3FE4185F56563606365644CE47CDCDD81B7CC4F40A1818FE
310
3300000000FFFF42540118D6A38636C1D2002AFFEFDF3F789B404C54147E4C1C5E40A014C0CCBD888084253C0606C85E46767636064E4E4E064E0E4E4877F1CF1F866FDFBE337CFBFA0D328A08730BB909018D4D8C3EF4A8C5270703FFFF43B6CEB1B2B232B0B1B1622DF629290960FA01000000FFFF22BA0AC0268FE20814
310
C7FF67E0E6E666B0B1B166D0D5D3656060408CF11304384A013C8AE17632FCFF0F1F38E2E0E060E0E4E284CC2C323232FCFE0369247EFDFA157E90328659C42404343641F7E1548CA31E80966C90862E2BFC8877A2231A6B22C1DD3B00000000FFFFAC5DC10E8020087D1496FF62FFFF27F6279DC4EA40A9B9691DF2E81E83
310
4D40D08DC7B5F6F762B0D72164CC7E28DDC9E21C0C33BC5F2151405C7EFDFCBB6EDB0957A7304CE0912146397382040409889BCE3DB0B3D5B9BAF4E53DACE5081D074195DE9B773F908E31453E834A3E46CA38CAF04AFAA92BEF34C138010000FFFFA49D490AC0200C45BF53ADBD88F7BF4A4E934D4917D53A83D0BD311FBE
310
2438E0B3D828FF3BA6AF76074A29C41811C205220233FF5A047D7BE84FFEA4129B8926C66838EB70DCEE239267848D361AA7F7E95BF5977FD0649B9AB6D23EC66655D3184179529F8CB7151BA0DC7CA231A0317B689FD20F4235CB20F3010000FFFF9C5D410E80200CEB60CA1FF4FFEF7327BD007A980A2804632F1C6842C6
310
BA844058B995D8DAA5CE83D01145E26897F080799EB08840441011B52721A8B93F39FA72A908E19A2182B5EAAFC3ACCFCCDE9F4E5A3E600D1B40FA31D68DEE76E748EB7E3DD4FDC0AEC11B6B303017EE5F37258FB118DE95D94EF65EEAF1C4010000FFFF945D310E80200C3CD4960FE0FFDFC7466483983A600902893AB134
310
A4706D2909DC3547C05BF9C707D0277388C07B8F2346103376E760D922848094531542A86FFF048019AE0ECDF863C76516086B21BED80827176EFE7C339DA9A045F9BA4E20A28754AEFAD077ED7F624057A6FC09450164A9F2F063E29911C421C9FBB23F075B26B617000000FFFFA49DB10E80200C44AF22984822FFFF9752
310
571487161263D5C191C0D6F6DA81DE1B7F57FACB3D118199915998B9F51026514A0B629CC1BC61CDAB40161B33CFCA01954AB292E3261F866C57E836931C084AE1701EF01E5EBFA277CA66D9C5FFB094DE12A610E0D453B911D32E99F9A10A15555CD40040D7EE8741CCB44881CD97503C54B915446B2EB0DFDD5BC4090000
310
FFFF9C9DBB0EC0200845B1AF38D6FFFFC3BAD9A94AB5C3151B13FB7496C59B1B09014EBB7FE88FD3AB70FCFDCC4C8BB5C421E4844662B148D29899B4D6E4565780C6654A58E1D19EE703BFF90FEC83938E0AEE1E783D6918294ED8511093801FC1DDDDBCA79EF7922788D82A0B89B9C7B3B45DA35EBAD2F320C28302A2881A
310
AEBF74F91BC16FC4AEEEE573000000FFFF8C9D3112C0200804CFA4C00FE4FF7F8C85A385A6C00BA3A3891D0515B31E5708ECB7801F28664A9252468C115C4CD365948AEA00EF052217724EB84350106AC181390826022B25F832149D4930C3F8AEC65718DCE958111B6D6B31CFBF11668EC7294CC3CFE5D63A78E489726F27
310
DF8159D197AF7C4709566671CC6BD1030000FFFFC25F059011E9C800725FDD7F9CE6200F2AB1B1B131080B0931FCFAF59BE1F397CF0C3F7EFC80F77D19991011C708AD0B20175A30206D58454A1338D300360958A9809418602B9418191998981991723CC2146400A90D18916846B83BFE334076E9324157E9C21203D6BA1E
310
89222E97635383A70188C52C00000000FFFFA45D410E803008EB343E60FEFF8D9CF4A4010F3840B82CF134766BD26E6D960CAA05FCF0FC788B30338848874D2FDE0C2A15B673216CD87BD761D3F785F3781F6E4487597810F433A0E48FCE210D1E2943780822315789B5E16F8668882C929A492E3A13D19FD02C66034AFC8A
310
617F30E49823FCB3E44C301B006B1E00040F000000FFFFA45D410AC0200CCB70FEFFC36ED9A18DD43A85B19BD00AC5A451A810393EFF007DAD047D2CEBF1216B41065957D67AF6FF80F2236A579B55810EB848804082634706BD02BC061124AE697B41BAD2CC5D18BBFFA64DEC4A3117B66EEDCA744601E95759DFDCE39F54
310
20819DF300E0010000FFFF8C9DB10E80200C445F5D0447F9FFBF94C8A0E050080434C8D4846E57EE8EA5F72901337A9FFE1E28ECDFD9F9A1621886D4548B08D61A8C593510F1BA08A7CAC31D6FF505991C6899A0BC64919734F476D30824D15E05B8DCD71AE8C0AFAB6962D210AD1002FEF020E076C7B6593596C56BE43307
310
EB43EBFBA1F8C3021D446F83F1000000FFFF945DD10A80200C3C05B537F3FF7F33A145B91E863A92A4DED4C373703A41DCF6EB297826FA136396DA345B56964CAE80B1F3DC0C68912F4B08AD80159722398CE868D130D6D68C80DD233416A3C5544B9937B0F208CC5C504E0956A183403BC92FE5AB97B9CF39C33B8F9412E2
310
1AE19D93F9D5A374627C39C1FF0537BA89615471DD000000FFFF9C5D4D0B80200C7DAE79F16048FDFFFF57878475923EE8102E8BA8E82E53F6B6E7988FC96FA0FFA57F224208013146AD922F7BDF06C4D760206340D622A5041181C888AA2230339C7387D49CF6C7A1B2756CE8A2062CE93DB39681CE2CC823EFD665D58FB3
310
F6EB08AA70CE1DBC7CD0699ED1F51D8638A06D1A785F832DE3E46CC5E319D02F197E5EF3520714B636000000FFFFA49DCD0AC32010843FB591F42434EFFF7CE90F340924E0216A0F1AAB4528B4274157901D991945DC5313BF3FDCFF311642406B4DDF9FD9B6357174BDA25F37C37163B6CC0BE3758C95CB95C2FB088EB536
310
4F9342C6C443D6FC4E7709B0A4DDDE572AB5BB3DB58EF2C30A10EF27EDA238CA65635A1009019038E7B9DD1F3CA789E132608C412AF991C3961F6800FA8D258A989681AC7A53DC0B0000FFFF949D4F0B80200CC57F238F1D8AFAFE1FD0535114696087B26642D86EE243646F3CE61FB6E27B803FF21FCD1843DF772CEB9263
310
8A084FE704389B536F586B19C6E17EFE8534D388448410F0CEA301CE3B058A268A4775A493A77A99644E7F3B587F6ABB02A23A77B45F8A30CD136DD352C7CA5D2AB842B2D6B70AE48497247E4232040E000000FFFFC23B0E40EE1801B23E1E1E1E064E682900194F27A304F80F8978064606868F1F3F313C7BFE8CE1F7AFDF
310
0CCC2C2CA8C7A64049A40C89993B519563461E163EE69A4506AC09024D058AAB60B9FEDBB7EF0C3FBEFF6010F821C020C02F0059CB081D68C29ACB29A81630DB02FF51B530303000000000FFFF0300E3B6A64C96CFDE170000000049454E44AE426082504B010214000A00000800001095883D3DEE336E7900000079000000
310
1B00000000000000000000000000000000006175746F6465736B2D64657369676E2D7061636B6167652E786D6C504B010214001400060808001095883D65017641AD000000260100001300000000000000000000000000B20000005B436F6E74656E745F54797065735D2E786D6C504B010214001400060808001095883D40
310
FEC721E90000007C010000080000000000000000000000000090010000636F72652E786D6C504B010214001400060808001095883D55019EA25F0000007C00000007000000000000000000000000009F020000636E782E786D6C504B010214001400060808001095883D99D5FB7A70010000D40300000C0000000000000000
310
0000000000230300006662782F636F72652E786D6C504B010214001400060808001095883D3909BF9F7C0000009D0000000B00000000000000000000000000BD0400006662782F636E782E786D6C504B010214001400060808001095883D250834892801000012020000310000000000000000000000000062050000666278
310
2F44333132383130322D353239302D343237382D383530442D3734413145334438333534452F636F72652E786D6C504B010214001400060808001095883DEDF4C73E4E010000330300003000000000000000000000000000D90600006662782F44333132383130322D353239302D343237382D383530442D37344131453344
310
38333534452F636E782E786D6C504B010214001400060808001095883DA7282FA6B9050000051100003400000000000000000000000000750800006662782F44333132383130322D353239302D343237382D383530442D3734413145334438333534452F6F626A656374732E786D6C504B010214001400060800001095883D
310
0000000000000000000000003500000000000000000000000000800E00006662782F44333132383130322D353239302D343237382D383530442D3734413145334438333534452F76657274696365732E62696E504B010214001400060808001095883DF270F13306000000040000003600000000000000000000000000D30E
310
00006662782F44333132383130322D353239302D343237382D383530442D3734413145334438333534452F747269616E676C65732E62696E504B010214001400060800001095883D00000000000000000000000037000000000000000000000000002D0F00006662782F44333132383130322D353239302D343237382D3835
310
30442D3734413145334438333534452F617474726962757465732E62696E504B010214001400060808001095883D08DA0BD190000000410100003600000000000000000000000000820F00006662782F44333132383130322D353239302D343237382D383530442D3734413145334438333534452F6469726563746F72792E
310
786D6C504B010214001400060808001095883DB852F564FC000000A00100003B00000000000000000000000000661000006662782F44333132383130322D353239302D343237382D383530442D3734413145334438333534452F7265736F75726365732F636F72652E786D6C504B010214001400060808001095883D2DEF20
310
765E0000007A0000003A00000000000000000000000000BB1100006662782F44333132383130322D353239302D343237382D383530442D3734413145334438333534452F7265736F75726365732F636E782E786D6C504B010214001400060808001095883D1688072FF7000000980100003D00000000000000000000000000
310
711200006662782F44333132383130322D353239302D343237382D383530442D3734413145334438333534452F7265736F75726365732F332F636F72652E786D6C504B010214001400060808001095883D17BFF9D027010000C20100003C00000000000000000000000000C31300006662782F44333132383130322D353239
310
302D343237382D383530442D3734413145334438333534452F7265736F75726365732F332F636E782E786D6C504B010214000A00000800001095883D88E5759790410000904100004200000000000000000000000000441500006662782F44333132383130322D353239302D343237382D383530442D373441314533443833
310
3534452F7265736F75726365732F332F305F67656E657269632E706E67504B050600000000120012002D060000345700000000
  0
XRECORD
  5
132EA
102
{ACAD_REACTORS
330
132E5
102
}
330
132E5
100
AcDbXrecord
280
     1
270
     1
271
     1
  0
XRECORD
  5
132E9
102
{ACAD_REACTORS
330
132E5
102
}
330
132E5
100
AcDbXrecord
280
     1
270
     1
271
     1
  0
XRECORD
  5
132EB
102
{ACAD_REACTORS
330
132E5
102
}
330
132E5
100
AcDbXrecord
280
     1
270
     1
271
     1
  0
XRECORD
  5
132E8
102
{ACAD_REACTORS
330
132E5
102
}
330
132E5
100
AcDbXrecord
280
     1
270
     1
271
     1
  0
CELLSTYLEMAP
  5
22D64
102
{ACAD_REACTORS
330
13AF6
102
}
330
13AF6
100
AcDbCellStyleMap
 90
        3
300
CELLSTYLE
  1
TABLEFORMAT_BEGIN
 90
        5
170
     1
 91
        0
 92
    32768
 62
   257
 93
        1
300
CONTENTFORMAT
  1
CONTENTFORMAT_BEGIN
 90
        0
 91
        0
 92
        4
 93
        0
300

 40
0.0
140
1.0
 94
        5
 62
     0
340
11
144
6.0
309
CONTENTFORMAT_END
171
     1
301
MARGIN
  1
CELLMARGIN_BEGIN
 40
1.5
 40
1.5
 40
1.5
 40
1.5
 40
0.18
 40
0.18
309
CELLMARGIN_END
 94
        6
 95
        1
302
GRIDFORMAT
  1
GRIDFORMAT_BEGIN
 90
        0
 91
        1
 62
     0
 92
       -2
340
0
 93
        0
 40
0.045
309
GRIDFORMAT_END
 95
        2
302
GRIDFORMAT
  1
GRIDFORMAT_BEGIN
 90
        0
 91
        1
 62
     0
 92
       -2
340
0
 93
        0
 40
0.045
309
GRIDFORMAT_END
 95
        4
302
GRIDFORMAT
  1
GRIDFORMAT_BEGIN
 90
        0
 91
        1
 62
     0
 92
       -2
340
0
 93
        0
 40
0.045
309
GRIDFORMAT_END
 95
        8
302
GRIDFORMAT
  1
GRIDFORMAT_BEGIN
 90
        0
 91
        1
 62
     0
 92
       -2
340
0
 93
        0
 40
0.045
309
GRIDFORMAT_END
 95
       16
302
GRIDFORMAT
  1
GRIDFORMAT_BEGIN
 90
        0
 91
        1
 62
     0
 92
       -2
340
0
 93
        0
 40
0.045
309
GRIDFORMAT_END
 95
       32
302
GRIDFORMAT
  1
GRIDFORMAT_BEGIN
 90
        0
 91
        1
 62
     0
 92
       -2
340
0
 93
        0
 40
0.045
309
GRIDFORMAT_END
309
TABLEFORMAT_END
  1
CELLSTYLE_BEGIN
 90
        1
 91
        1
300
_TITLE
309
CELLSTYLE_END
300
CELLSTYLE
  1
TABLEFORMAT_BEGIN
 90
        5
170
     1
 91
        0
 92
        0
 62
   257
 93
        1
300
CONTENTFORMAT
  1
CONTENTFORMAT_BEGIN
 90
        0
 91
        0
 92
        4
 93
        0
300

 40
0.0
140
1.0
 94
        5
 62
     0
340
11
144
4.5
309
CONTENTFORMAT_END
171
     1
301
MARGIN
  1
CELLMARGIN_BEGIN
 40
1.5
 40
1.5
 40
1.5
 40
1.5
 40
0.18
 40
0.18
309
CELLMARGIN_END
 94
        6
 95
        1
302
GRIDFORMAT
  1
GRIDFORMAT_BEGIN
 90
        0
 91
        1
 62
     0
 92
       -2
340
0
 93
        0
 40
0.045
309
GRIDFORMAT_END
 95
        2
302
GRIDFORMAT
  1
GRIDFORMAT_BEGIN
 90
        0
 91
        1
 62
     0
 92
       -2
340
0
 93
        0
 40
0.045
309
GRIDFORMAT_END
 95
        4
302
GRIDFORMAT
  1
GRIDFORMAT_BEGIN
 90
        0
 91
        1
 62
     0
 92
       -2
340
0
 93
        0
 40
0.045
309
GRIDFORMAT_END
 95
        8
302
GRIDFORMAT
  1
GRIDFORMAT_BEGIN
 90
        0
 91
        1
 62
     0
 92
       -2
340
0
 93
        0
 40
0.045
309
GRIDFORMAT_END
 95
       16
302
GRIDFORMAT
  1
GRIDFORMAT_BEGIN
 90
        0
 91
        1
 62
     0
 92
       -2
340
0
 93
        0
 40
0.045
309
GRIDFORMAT_END
 95
       32
302
GRIDFORMAT
  1
GRIDFORMAT_BEGIN
 90
        0
 91
        1
 62
     0
 92
       -2
340
0
 93
        0
 40
0.045
309
GRIDFORMAT_END
309
TABLEFORMAT_END
  1
CELLSTYLE_BEGIN
 90
        2
 91
        1
300
_HEADER
309
CELLSTYLE_END
300
CELLSTYLE
  1
TABLEFORMAT_BEGIN
 90
        5
170
     1
 91
        0
 92
        0
 62
   257
 93
        1
300
CONTENTFORMAT
  1
CONTENTFORMAT_BEGIN
 90
        0
 91
        0
 92
        4
 93
        0
300

 40
0.0
140
1.0
 94
        2
 62
     0
340
11
144
4.5
309
CONTENTFORMAT_END
171
     1
301
MARGIN
  1
CELLMARGIN_BEGIN
 40
1.5
 40
1.5
 40
1.5
 40
1.5
 40
0.18
 40
0.18
309
CELLMARGIN_END
 94
        6
 95
        1
302
GRIDFORMAT
  1
GRIDFORMAT_BEGIN
 90
        0
 91
        1
 62
     0
 92
       -2
340
0
 93
        0
 40
0.045
309
GRIDFORMAT_END
 95
        2
302
GRIDFORMAT
  1
GRIDFORMAT_BEGIN
 90
        0
 91
        1
 62
     0
 92
       -2
340
0
 93
        0
 40
0.045
309
GRIDFORMAT_END
 95
        4
302
GRIDFORMAT
  1
GRIDFORMAT_BEGIN
 90
        0
 91
        1
 62
     0
 92
       -2
340
0
 93
        0
 40
0.045
309
GRIDFORMAT_END
 95
        8
302
GRIDFORMAT
  1
GRIDFORMAT_BEGIN
 90
        0
 91
        1
 62
     0
 92
       -2
340
0
 93
        0
 40
0.045
309
GRIDFORMAT_END
 95
       16
302
GRIDFORMAT
  1
GRIDFORMAT_BEGIN
 90
        0
 91
        1
 62
     0
 92
       -2
340
0
 93
        0
 40
0.045
309
GRIDFORMAT_END
 95
       32
302
GRIDFORMAT
  1
GRIDFORMAT_BEGIN
 90
        0
 91
        1
 62
     0
 92
       -2
340
0
 93
        0
 40
0.045
309
GRIDFORMAT_END
309
TABLEFORMAT_END
  1
CELLSTYLE_BEGIN
 90
        3
 91
        2
300
_DATA
309
CELLSTYLE_END
  0
XRECORD
  5
22D73
102
{ACAD_REACTORS
330
13AF6
102
}
330
13AF6
100
AcDbXrecord
280
     1
102
ACAD_ROUNDTRIP_PRE2007_TABLESTYLE
 90
        4
 91
        0
  1

 92
        4
 93
        0
  2

 94
        4
 95
        0
  3

  0
XRECORD
  5
219BB
102
{ACAD_REACTORS
330
219BA
102
}
330
219BA
100
AcDbXrecord
280
     1
102
RTVSPost2010Prop28
280
     1
102
RTVSPost2010PropOp28
 70
     1
102
RTVSPost2010Prop29
280
     1
102
RTVSPost2010PropOp29
 70
     1
102
RTVSPost2010Prop30
280
     0
102
RTVSPost2010PropOp30
 70
     1
102
RTVSPost2010Prop31
280
     0
102
RTVSPost2010PropOp31
 70
     1
102
RTVSPost2010Prop32
280
     0
102
RTVSPost2010PropOp32
 70
     1
102
RTVSPost2010Prop33
280
     0
102
RTVSPost2010PropOp33
 70
     1
102
RTVSPost2010Prop34
280
     0
102
RTVSPost2010PropOp34
 70
     1
102
RTVSPost2010Prop35
280
     0
102
RTVSPost2010PropOp35
 70
     1
102
RTVSPost2010Prop36
280
     0
102
RTVSPost2010PropOp36
 70
     1
102
RTVSPost2010Prop37
 90
       50
102
RTVSPost2010PropOp37
 70
     1
102
RTVSPost2010Prop38
140
0.0
102
RTVSPost2010PropOp38
 70
     1
102
RTVSPost2010Prop39
140
1.0
102
RTVSPost2010PropOp39
 70
     1
102
RTVSPost2010Prop40
 90
        0
102
RTVSPost2010PropOp40
 70
     1
102
RTVSPost2010Prop41ColorIndex
 90
       18
102
RTVSPost2010Prop41ColorRGB
 90
        0
102
RTVSPost2010PropOp41
 70
     1
102
RTVSPost2010Prop42
 90
       50
102
RTVSPost2010PropOp42
 70
     1
102
RTVSPost2010Prop43
 90
        3
102
RTVSPost2010PropOp43
 70
     1
102
RTVSPost2010Prop44ColorIndex
 90
        5
102
RTVSPost2010Prop44ColorRGB
 90
      255
102
RTVSPost2010PropOp44
 70
     1
102
RTVSPost2010Prop45
280
     0
102
RTVSPost2010PropOp45
 70
     1
102
RTVSPost2010Prop46
 90
       50
102
RTVSPost2010PropOp46
 70
     1
102
RTVSPost2010Prop47
 90
       50
102
RTVSPost2010PropOp47
 70
     1
102
RTVSPost2010Prop48
 90
       50
102
RTVSPost2010PropOp48
 70
     1
102
RTVSPost2010Prop49
280
     0
102
RTVSPost2010PropOp49
 70
     1
102
RTVSPost2010Prop50
 90
       50
102
RTVSPost2010PropOp50
 70
     1
102
RTVSPost2010Prop51ColorIndex
 90
      256
102
RTVSPost2010Prop51ColorRGB
 90
-16777216
102
RTVSPost2010PropOp51
 70
     0
102
RTVSPost2010Prop52
140
1.0
102
RTVSPost2010PropOp52
 70
     0
102
RTVSPost2010Prop53
 90
        2
102
RTVSPost2010PropOp53
 70
     1
102
RTVSPost2010Prop54
  1
strokes_ogs.tif
102
RTVSPost2010PropOp54
 70
     1
102
RTVSPost2010Prop55
280
     0
102
RTVSPost2010PropOp55
 70
     1
102
RTVSPost2010Prop56
140
1.0
102
RTVSPost2010PropOp56
 70
     1
102
RTVSPost2010Prop57
140
1.0
102
RTVSPost2010PropOp57
 70
     1
102
RTVSPropertyOp33
 70
     1
102
RTVSPropertyOp34
 70
     1
102
RTVSPropertyOp35
 70
     1
102
RTVSPropertyOp36
 70
     1
102
RTVSPropertyOp37
 70
     1
102
RTVSPropertyOp38
 70
     1
102
RTVSPropertyOp39
 70
     1
102
RTVSPropertyOp40
 70
     1
102
RTVSPropertyOp41
 70
     1
102
RTVSPropertyOp42
 70
     1
102
RTVSPropertyOp43
 70
     1
102
RTVSPropertyOp44
 70
     1
102
RTVSPropertyOp45
 70
     1
102
RTVSPropertyOp46
 70
     1
102
RTVSPropertyOp47
 70
     1
102
RTVSPropertyOp48
 70
     1
102
RTVSPropertyOp49
 70
     1
102
RTVSPropertyOp50
 70
     1
102
RTVSPropertyOp51
 70
     0
102
RTVSPropertyOp52
 70
     0
102
RTVSPropertyOp53
 70
     1
102
RTVSPropertyOp54
 70
     1
102
RTVSPropertyOp55
 70
     1
102
RTVSPropertyOp56
 70
     1
102
RTVSPropertyOp57
 70
     1
102
RTVSPropertyOp58
 70
     1
102
RTVSPropertyOp59
 70
     1
102
RTVSPropertyOp60
 70
     1
102
RTVSPropertyOp61
 70
     1
102
RTVSPropertyOp62
 70
     1
102
RTVSPropertyOp0
 70
     1
102
RTVSPropertyOp1
 70
     1
102
RTVSPropertyOp2
 70
     1
102
RTVSPropertyOp3
 70
     1
102
RTVSPropertyOp4
 70
     1
102
RTVSPropertyOp5
 70
     1
102
RTVSPropertyOp6
 70
     1
102
RTVSPropertyOp7
 70
     1
102
RTVSPropertyOp8
 70
     1
102
RTVSPropertyOp9
 70
     1
102
RTVSPropertyOp10
 70
     1
102
RTVSPropertyOp11
 70
     1
102
RTVSPropertyOp12
 70
     1
102
RTVSPropertyOp13
 70
     1
102
RTVSPropertyOp14
 70
     1
102
RTVSPropertyOp15
 70
     1
102
RTVSPropertyOp16
 70
     1
102
RTVSPropertyOp17
 70
     1
102
RTVSPropertyOp18
 70
     1
102
RTVSPropertyOp19
 70
     1
102
RTVSPropertyOp20
 70
     1
102
RTVSPropertyOp21
 70
     1
102
RTVSPropertyOp22
 70
     1
102
RTVSPropertyOp23
 70
     1
102
RTVSPropertyOp24
 70
     1
102
RTVSPropertyOp25
 70
     1
102
RTVSPropertyOp26
 70
     1
102
RTVSPropertyOp27
 70
     1
102
RTVSPropertyOp28
 70
     1
102
RTVSPropertyOp29
 70
     1
102
RTVSPropertyOp30
 70
     1
102
RTVSPropertyOp31
 70
     1
102
RTVSPropertyOp32
 70
     1
  0
XRECORD
  5
219B9
102
{ACAD_REACTORS
330
219B8
102
}
330
219B8
100
AcDbXrecord
280
     1
102
RTVSPost2010Prop28
280
     0
102
RTVSPost2010PropOp28
 70
     1
102
RTVSPost2010Prop29
280
     1
102
RTVSPost2010PropOp29
 70
     1
102
RTVSPost2010Prop30
280
     1
102
RTVSPost2010PropOp30
 70
     1
102
RTVSPost2010Prop31
280
     0
102
RTVSPost2010PropOp31
 70
     1
102
RTVSPost2010Prop32
280
     0
102
RTVSPost2010PropOp32
 70
     1
102
RTVSPost2010Prop33
280
     0
102
RTVSPost2010PropOp33
 70
     1
102
RTVSPost2010Prop34
280
     0
102
RTVSPost2010PropOp34
 70
     1
102
RTVSPost2010Prop35
280
     0
102
RTVSPost2010PropOp35
 70
     1
102
RTVSPost2010Prop36
280
     0
102
RTVSPost2010PropOp36
 70
     1
102
RTVSPost2010Prop37
 90
       50
102
RTVSPost2010PropOp37
 70
     1
102
RTVSPost2010Prop38
140
0.0
102
RTVSPost2010PropOp38
 70
     1
102
RTVSPost2010Prop39
140
1.0
102
RTVSPost2010PropOp39
 70
     1
102
RTVSPost2010Prop40
 90
        0
102
RTVSPost2010PropOp40
 70
     1
102
RTVSPost2010Prop41ColorIndex
 90
       18
102
RTVSPost2010Prop41ColorRGB
 90
        0
102
RTVSPost2010PropOp41
 70
     1
102
RTVSPost2010Prop42
 90
       50
102
RTVSPost2010PropOp42
 70
     1
102
RTVSPost2010Prop43
 90
        3
102
RTVSPost2010PropOp43
 70
     1
102
RTVSPost2010Prop44ColorIndex
 90
        5
102
RTVSPost2010Prop44ColorRGB
 90
      255
102
RTVSPost2010PropOp44
 70
     1
102
RTVSPost2010Prop45
280
     0
102
RTVSPost2010PropOp45
 70
     1
102
RTVSPost2010Prop46
 90
       50
102
RTVSPost2010PropOp46
 70
     1
102
RTVSPost2010Prop47
 90
       50
102
RTVSPost2010PropOp47
 70
     1
102
RTVSPost2010Prop48
 90
       50
102
RTVSPost2010PropOp48
 70
     1
102
RTVSPost2010Prop49
280
     0
102
RTVSPost2010PropOp49
 70
     1
102
RTVSPost2010Prop50
 90
       50
102
RTVSPost2010PropOp50
 70
     1
102
RTVSPost2010Prop51ColorIndex
 90
      256
102
RTVSPost2010Prop51ColorRGB
 90
-16777216
102
RTVSPost2010PropOp51
 70
     0
102
RTVSPost2010Prop52
140
1.0
102
RTVSPost2010PropOp52
 70
     0
102
RTVSPost2010Prop53
 90
        2
102
RTVSPost2010PropOp53
 70
     1
102
RTVSPost2010Prop54
  1
strokes_ogs.tif
102
RTVSPost2010PropOp54
 70
     1
102
RTVSPost2010Prop55
280
     0
102
RTVSPost2010PropOp55
 70
     1
102
RTVSPost2010Prop56
140
1.0
102
RTVSPost2010PropOp56
 70
     1
102
RTVSPost2010Prop57
140
1.0
102
RTVSPost2010PropOp57
 70
     1
102
RTVSPropertyOp33
 70
     1
102
RTVSPropertyOp34
 70
     1
102
RTVSPropertyOp35
 70
     1
102
RTVSPropertyOp36
 70
     1
102
RTVSPropertyOp37
 70
     1
102
RTVSPropertyOp38
 70
     1
102
RTVSPropertyOp39
 70
     1
102
RTVSPropertyOp40
 70
     1
102
RTVSPropertyOp41
 70
     1
102
RTVSPropertyOp42
 70
     1
102
RTVSPropertyOp43
 70
     1
102
RTVSPropertyOp44
 70
     1
102
RTVSPropertyOp45
 70
     1
102
RTVSPropertyOp46
 70
     1
102
RTVSPropertyOp47
 70
     1
102
RTVSPropertyOp48
 70
     1
102
RTVSPropertyOp49
 70
     1
102
RTVSPropertyOp50
 70
     1
102
RTVSPropertyOp51
 70
     0
102
RTVSPropertyOp52
 70
     0
102
RTVSPropertyOp53
 70
     1
102
RTVSPropertyOp54
 70
     1
102
RTVSPropertyOp55
 70
     1
102
RTVSPropertyOp56
 70
     1
102
RTVSPropertyOp57
 70
     1
102
RTVSPropertyOp58
 70
     1
102
RTVSPropertyOp59
 70
     1
102
RTVSPropertyOp60
 70
     1
102
RTVSPropertyOp61
 70
     1
102
RTVSPropertyOp62
 70
     1
102
RTVSPropertyOp0
 70
     1
102
RTVSPropertyOp1
 70
     1
102
RTVSPropertyOp2
 70
     1
102
RTVSPropertyOp3
 70
     1
102
RTVSPropertyOp4
 70
     1
102
RTVSPropertyOp5
 70
     1
102
RTVSPropertyOp6
 70
     1
102
RTVSPropertyOp7
 70
     1
102
RTVSPropertyOp8
 70
     1
102
RTVSPropertyOp9
 70
     1
102
RTVSPropertyOp10
 70
     1
102
RTVSPropertyOp11
 70
     1
102
RTVSPropertyOp12
 70
     1
102
RTVSPropertyOp13
 70
     1
102
RTVSPropertyOp14
 70
     1
102
RTVSPropertyOp15
 70
     1
102
RTVSPropertyOp16
 70
     1
102
RTVSPropertyOp17
 70
     1
102
RTVSPropertyOp18
 70
     1
102
RTVSPropertyOp19
 70
     1
102
RTVSPropertyOp20
 70
     1
102
RTVSPropertyOp21
 70
     1
102
RTVSPropertyOp22
 70
     1
102
RTVSPropertyOp23
 70
     1
102
RTVSPropertyOp24
 70
     1
102
RTVSPropertyOp25
 70
     1
102
RTVSPropertyOp26
 70
     1
102
RTVSPropertyOp27
 70
     1
102
RTVSPropertyOp28
 70
     1
102
RTVSPropertyOp29
 70
     1
102
RTVSPropertyOp30
 70
     1
102
RTVSPropertyOp31
 70
     1
102
RTVSPropertyOp32
 70
     1
  0
XRECORD
  5
219C7
102
{ACAD_REACTORS
330
219C6
102
}
330
219C6
100
AcDbXrecord
280
     1
102
RTVSPost2010Prop28
280
     0
102
RTVSPost2010PropOp28
 70
     1
102
RTVSPost2010Prop29
280
     1
102
RTVSPost2010PropOp29
 70
     1
102
RTVSPost2010Prop30
280
     1
102
RTVSPost2010PropOp30
 70
     1
102
RTVSPost2010Prop31
280
     0
102
RTVSPost2010PropOp31
 70
     1
102
RTVSPost2010Prop32
280
     0
102
RTVSPost2010PropOp32
 70
     1
102
RTVSPost2010Prop33
280
     0
102
RTVSPost2010PropOp33
 70
     1
102
RTVSPost2010Prop34
280
     0
102
RTVSPost2010PropOp34
 70
     1
102
RTVSPost2010Prop35
280
     0
102
RTVSPost2010PropOp35
 70
     1
102
RTVSPost2010Prop36
280
     0
102
RTVSPost2010PropOp36
 70
     1
102
RTVSPost2010Prop37
 90
       50
102
RTVSPost2010PropOp37
 70
     1
102
RTVSPost2010Prop38
140
0.0
102
RTVSPost2010PropOp38
 70
     1
102
RTVSPost2010Prop39
140
1.0
102
RTVSPost2010PropOp39
 70
     1
102
RTVSPost2010Prop40
 90
        0
102
RTVSPost2010PropOp40
 70
     1
102
RTVSPost2010Prop41ColorIndex
 90
       18
102
RTVSPost2010Prop41ColorRGB
 90
        0
102
RTVSPost2010PropOp41
 70
     1
102
RTVSPost2010Prop42
 90
       50
102
RTVSPost2010PropOp42
 70
     1
102
RTVSPost2010Prop43
 90
        3
102
RTVSPost2010PropOp43
 70
     1
102
RTVSPost2010Prop44ColorIndex
 90
        5
102
RTVSPost2010Prop44ColorRGB
 90
      255
102
RTVSPost2010PropOp44
 70
     1
102
RTVSPost2010Prop45
280
     0
102
RTVSPost2010PropOp45
 70
     1
102
RTVSPost2010Prop46
 90
       50
102
RTVSPost2010PropOp46
 70
     1
102
RTVSPost2010Prop47
 90
       50
102
RTVSPost2010PropOp47
 70
     1
102
RTVSPost2010Prop48
 90
       50
102
RTVSPost2010PropOp48
 70
     1
102
RTVSPost2010Prop49
280
     0
102
RTVSPost2010PropOp49
 70
     1
102
RTVSPost2010Prop50
 90
       50
102
RTVSPost2010PropOp50
 70
     1
102
RTVSPost2010Prop51ColorIndex
 90
      256
102
RTVSPost2010Prop51ColorRGB
 90
-16777216
102
RTVSPost2010PropOp51
 70
     0
102
RTVSPost2010Prop52
140
1.0
102
RTVSPost2010PropOp52
 70
     0
102
RTVSPost2010Prop53
 90
        2
102
RTVSPost2010PropOp53
 70
     1
102
RTVSPost2010Prop54
  1
strokes_ogs.tif
102
RTVSPost2010PropOp54
 70
     1
102
RTVSPost2010Prop55
280
     0
102
RTVSPost2010PropOp55
 70
     1
102
RTVSPost2010Prop56
140
1.0
102
RTVSPost2010PropOp56
 70
     1
102
RTVSPost2010Prop57
140
1.0
102
RTVSPost2010PropOp57
 70
     1
102
RTVSPropertyOp33
 70
     1
102
RTVSPropertyOp34
 70
     1
102
RTVSPropertyOp35
 70
     1
102
RTVSPropertyOp36
 70
     1
102
RTVSPropertyOp37
 70
     1
102
RTVSPropertyOp38
 70
     1
102
RTVSPropertyOp39
 70
     1
102
RTVSPropertyOp40
 70
     1
102
RTVSPropertyOp41
 70
     1
102
RTVSPropertyOp42
 70
     1
102
RTVSPropertyOp43
 70
     1
102
RTVSPropertyOp44
 70
     1
102
RTVSPropertyOp45
 70
     1
102
RTVSPropertyOp46
 70
     1
102
RTVSPropertyOp47
 70
     1
102
RTVSPropertyOp48
 70
     1
102
RTVSPropertyOp49
 70
     1
102
RTVSPropertyOp50
 70
     1
102
RTVSPropertyOp51
 70
     0
102
RTVSPropertyOp52
 70
     0
102
RTVSPropertyOp53
 70
     1
102
RTVSPropertyOp54
 70
     1
102
RTVSPropertyOp55
 70
     1
102
RTVSPropertyOp56
 70
     1
102
RTVSPropertyOp57
 70
     1
102
RTVSPropertyOp58
 70
     1
102
RTVSPropertyOp59
 70
     1
102
RTVSPropertyOp60
 70
     1
102
RTVSPropertyOp61
 70
     1
102
RTVSPropertyOp62
 70
     1
102
RTVSPropertyOp0
 70
     1
102
RTVSPropertyOp1
 70
     1
102
RTVSPropertyOp2
 70
     1
102
RTVSPropertyOp3
 70
     1
102
RTVSPropertyOp4
 70
     1
102
RTVSPropertyOp5
 70
     1
102
RTVSPropertyOp6
 70
     1
102
RTVSPropertyOp7
 70
     1
102
RTVSPropertyOp8
 70
     1
102
RTVSPropertyOp9
 70
     1
102
RTVSPropertyOp10
 70
     1
102
RTVSPropertyOp11
 70
     1
102
RTVSPropertyOp12
 70
     1
102
RTVSPropertyOp13
 70
     1
102
RTVSPropertyOp14
 70
     1
102
RTVSPropertyOp15
 70
     1
102
RTVSPropertyOp16
 70
     1
102
RTVSPropertyOp17
 70
     1
102
RTVSPropertyOp18
 70
     1
102
RTVSPropertyOp19
 70
     1
102
RTVSPropertyOp20
 70
     1
102
RTVSPropertyOp21
 70
     1
102
RTVSPropertyOp22
 70
     1
102
RTVSPropertyOp23
 70
     1
102
RTVSPropertyOp24
 70
     1
102
RTVSPropertyOp25
 70
     1
102
RTVSPropertyOp26
 70
     1
102
RTVSPropertyOp27
 70
     1
102
RTVSPropertyOp28
 70
     1
102
RTVSPropertyOp29
 70
     1
102
RTVSPropertyOp30
 70
     1
102
RTVSPropertyOp31
 70
     1
102
RTVSPropertyOp32
 70
     1
  0
XRECORD
  5
219CF
102
{ACAD_REACTORS
330
219CE
102
}
330
219CE
100
AcDbXrecord
280
     1
102
RTVSPost2010Prop28
280
     0
102
RTVSPost2010PropOp28
 70
     1
102
RTVSPost2010Prop29
280
     1
102
RTVSPost2010PropOp29
 70
     1
102
RTVSPost2010Prop30
280
     1
102
RTVSPost2010PropOp30
 70
     1
102
RTVSPost2010Prop31
280
     0
102
RTVSPost2010PropOp31
 70
     1
102
RTVSPost2010Prop32
280
     0
102
RTVSPost2010PropOp32
 70
     1
102
RTVSPost2010Prop33
280
     0
102
RTVSPost2010PropOp33
 70
     1
102
RTVSPost2010Prop34
280
     0
102
RTVSPost2010PropOp34
 70
     1
102
RTVSPost2010Prop35
280
     0
102
RTVSPost2010PropOp35
 70
     1
102
RTVSPost2010Prop36
280
     0
102
RTVSPost2010PropOp36
 70
     1
102
RTVSPost2010Prop37
 90
       50
102
RTVSPost2010PropOp37
 70
     1
102
RTVSPost2010Prop38
140
0.0
102
RTVSPost2010PropOp38
 70
     1
102
RTVSPost2010Prop39
140
1.0
102
RTVSPost2010PropOp39
 70
     1
102
RTVSPost2010Prop40
 90
        0
102
RTVSPost2010PropOp40
 70
     1
102
RTVSPost2010Prop41ColorIndex
 90
       18
102
RTVSPost2010Prop41ColorRGB
 90
        0
102
RTVSPost2010PropOp41
 70
     1
102
RTVSPost2010Prop42
 90
       50
102
RTVSPost2010PropOp42
 70
     1
102
RTVSPost2010Prop43
 90
        3
102
RTVSPost2010PropOp43
 70
     1
102
RTVSPost2010Prop44ColorIndex
 90
        5
102
RTVSPost2010Prop44ColorRGB
 90
      255
102
RTVSPost2010PropOp44
 70
     1
102
RTVSPost2010Prop45
280
     0
102
RTVSPost2010PropOp45
 70
     1
102
RTVSPost2010Prop46
 90
       50
102
RTVSPost2010PropOp46
 70
     1
102
RTVSPost2010Prop47
 90
       50
102
RTVSPost2010PropOp47
 70
     1
102
RTVSPost2010Prop48
 90
       50
102
RTVSPost2010PropOp48
 70
     1
102
RTVSPost2010Prop49
280
     0
102
RTVSPost2010PropOp49
 70
     1
102
RTVSPost2010Prop50
 90
       50
102
RTVSPost2010PropOp50
 70
     1
102
RTVSPost2010Prop51ColorIndex
 90
      256
102
RTVSPost2010Prop51ColorRGB
 90
-16777216
102
RTVSPost2010PropOp51
 70
     0
102
RTVSPost2010Prop52
140
1.0
102
RTVSPost2010PropOp52
 70
     0
102
RTVSPost2010Prop53
 90
        2
102
RTVSPost2010PropOp53
 70
     1
102
RTVSPost2010Prop54
  1
strokes_ogs.tif
102
RTVSPost2010PropOp54
 70
     1
102
RTVSPost2010Prop55
280
     0
102
RTVSPost2010PropOp55
 70
     1
102
RTVSPost2010Prop56
140
1.0
102
RTVSPost2010PropOp56
 70
     1
102
RTVSPost2010Prop57
140
1.0
102
RTVSPost2010PropOp57
 70
     1
102
RTVSPropertyOp33
 70
     1
102
RTVSPropertyOp34
 70
     1
102
RTVSPropertyOp35
 70
     1
102
RTVSPropertyOp36
 70
     1
102
RTVSPropertyOp37
 70
     1
102
RTVSPropertyOp38
 70
     1
102
RTVSPropertyOp39
 70
     1
102
RTVSPropertyOp40
 70
     1
102
RTVSPropertyOp41
 70
     1
102
RTVSPropertyOp42
 70
     1
102
RTVSPropertyOp43
 70
     1
102
RTVSPropertyOp44
 70
     1
102
RTVSPropertyOp45
 70
     1
102
RTVSPropertyOp46
 70
     1
102
RTVSPropertyOp47
 70
     1
102
RTVSPropertyOp48
 70
     1
102
RTVSPropertyOp49
 70
     1
102
RTVSPropertyOp50
 70
     1
102
RTVSPropertyOp51
 70
     0
102
RTVSPropertyOp52
 70
     0
102
RTVSPropertyOp53
 70
     1
102
RTVSPropertyOp54
 70
     1
102
RTVSPropertyOp55
 70
     1
102
RTVSPropertyOp56
 70
     1
102
RTVSPropertyOp57
 70
     1
102
RTVSPropertyOp58
 70
     1
102
RTVSPropertyOp59
 70
     1
102
RTVSPropertyOp60
 70
     1
102
RTVSPropertyOp61
 70
     1
102
RTVSPropertyOp62
 70
     1
102
RTVSPropertyOp0
 70
     1
102
RTVSPropertyOp1
 70
     1
102
RTVSPropertyOp2
 70
     1
102
RTVSPropertyOp3
 70
     1
102
RTVSPropertyOp4
 70
     1
102
RTVSPropertyOp5
 70
     1
102
RTVSPropertyOp6
 70
     1
102
RTVSPropertyOp7
 70
     1
102
RTVSPropertyOp8
 70
     1
102
RTVSPropertyOp9
 70
     1
102
RTVSPropertyOp10
 70
     1
102
RTVSPropertyOp11
 70
     1
102
RTVSPropertyOp12
 70
     1
102
RTVSPropertyOp13
 70
     1
102
RTVSPropertyOp14
 70
     1
102
RTVSPropertyOp15
 70
     1
102
RTVSPropertyOp16
 70
     1
102
RTVSPropertyOp17
 70
     1
102
RTVSPropertyOp18
 70
     1
102
RTVSPropertyOp19
 70
     1
102
RTVSPropertyOp20
 70
     1
102
RTVSPropertyOp21
 70
     1
102
RTVSPropertyOp22
 70
     1
102
RTVSPropertyOp23
 70
     1
102
RTVSPropertyOp24
 70
     1
102
RTVSPropertyOp25
 70
     1
102
RTVSPropertyOp26
 70
     1
102
RTVSPropertyOp27
 70
     1
102
RTVSPropertyOp28
 70
     1
102
RTVSPropertyOp29
 70
     1
102
RTVSPropertyOp30
 70
     1
102
RTVSPropertyOp31
 70
     1
102
RTVSPropertyOp32
 70
     1
  0
XRECORD
  5
219C1
102
{ACAD_REACTORS
330
219C0
102
}
330
219C0
100
AcDbXrecord
280
     1
102
RTVSPost2010Prop28
280
     0
102
RTVSPost2010PropOp28
 70
     1
102
RTVSPost2010Prop29
280
     1
102
RTVSPost2010PropOp29
 70
     1
102
RTVSPost2010Prop30
280
     1
102
RTVSPost2010PropOp30
 70
     1
102
RTVSPost2010Prop31
280
     0
102
RTVSPost2010PropOp31
 70
     1
102
RTVSPost2010Prop32
280
     0
102
RTVSPost2010PropOp32
 70
     1
102
RTVSPost2010Prop33
280
     0
102
RTVSPost2010PropOp33
 70
     1
102
RTVSPost2010Prop34
280
     0
102
RTVSPost2010PropOp34
 70
     1
102
RTVSPost2010Prop35
280
     0
102
RTVSPost2010PropOp35
 70
     1
102
RTVSPost2010Prop36
280
     0
102
RTVSPost2010PropOp36
 70
     1
102
RTVSPost2010Prop37
 90
       50
102
RTVSPost2010PropOp37
 70
     1
102
RTVSPost2010Prop38
140
0.0
102
RTVSPost2010PropOp38
 70
     1
102
RTVSPost2010Prop39
140
1.0
102
RTVSPost2010PropOp39
 70
     1
102
RTVSPost2010Prop40
 90
        0
102
RTVSPost2010PropOp40
 70
     1
102
RTVSPost2010Prop41ColorIndex
 90
       18
102
RTVSPost2010Prop41ColorRGB
 90
        0
102
RTVSPost2010PropOp41
 70
     1
102
RTVSPost2010Prop42
 90
       50
102
RTVSPost2010PropOp42
 70
     1
102
RTVSPost2010Prop43
 90
        3
102
RTVSPost2010PropOp43
 70
     1
102
RTVSPost2010Prop44ColorIndex
 90
        5
102
RTVSPost2010Prop44ColorRGB
 90
      255
102
RTVSPost2010PropOp44
 70
     1
102
RTVSPost2010Prop45
280
     0
102
RTVSPost2010PropOp45
 70
     1
102
RTVSPost2010Prop46
 90
       50
102
RTVSPost2010PropOp46
 70
     1
102
RTVSPost2010Prop47
 90
       50
102
RTVSPost2010PropOp47
 70
     1
102
RTVSPost2010Prop48
 90
       50
102
RTVSPost2010PropOp48
 70
     1
102
RTVSPost2010Prop49
280
     0
102
RTVSPost2010PropOp49
 70
     1
102
RTVSPost2010Prop50
 90
       50
102
RTVSPost2010PropOp50
 70
     1
102
RTVSPost2010Prop51ColorIndex
 90
      256
102
RTVSPost2010Prop51ColorRGB
 90
-16777216
102
RTVSPost2010PropOp51
 70
     0
102
RTVSPost2010Prop52
140
1.0
102
RTVSPost2010PropOp52
 70
     0
102
RTVSPost2010Prop53
 90
        2
102
RTVSPost2010PropOp53
 70
     1
102
RTVSPost2010Prop54
  1
strokes_ogs.tif
102
RTVSPost2010PropOp54
 70
     1
102
RTVSPost2010Prop55
280
     0
102
RTVSPost2010PropOp55
 70
     1
102
RTVSPost2010Prop56
140
1.0
102
RTVSPost2010PropOp56
 70
     1
102
RTVSPost2010Prop57
140
1.0
102
RTVSPost2010PropOp57
 70
     1
102
RTVSPropertyOp33
 70
     1
102
RTVSPropertyOp34
 70
     1
102
RTVSPropertyOp35
 70
     1
102
RTVSPropertyOp36
 70
     1
102
RTVSPropertyOp37
 70
     1
102
RTVSPropertyOp38
 70
     1
102
RTVSPropertyOp39
 70
     1
102
RTVSPropertyOp40
 70
     1
102
RTVSPropertyOp41
 70
     1
102
RTVSPropertyOp42
 70
     1
102
RTVSPropertyOp43
 70
     1
102
RTVSPropertyOp44
 70
     1
102
RTVSPropertyOp45
 70
     1
102
RTVSPropertyOp46
 70
     1
102
RTVSPropertyOp47
 70
     1
102
RTVSPropertyOp48
 70
     1
102
RTVSPropertyOp49
 70
     1
102
RTVSPropertyOp50
 70
     1
102
RTVSPropertyOp51
 70
     0
102
RTVSPropertyOp52
 70
     0
102
RTVSPropertyOp53
 70
     1
102
RTVSPropertyOp54
 70
     1
102
RTVSPropertyOp55
 70
     1
102
RTVSPropertyOp56
 70
     1
102
RTVSPropertyOp57
 70
     1
102
RTVSPropertyOp58
 70
     1
102
RTVSPropertyOp59
 70
     1
102
RTVSPropertyOp60
 70
     1
102
RTVSPropertyOp61
 70
     1
102
RTVSPropertyOp62
 70
     1
102
RTVSPropertyOp0
 70
     1
102
RTVSPropertyOp1
 70
     1
102
RTVSPropertyOp2
 70
     1
102
RTVSPropertyOp3
 70
     1
102
RTVSPropertyOp4
 70
     1
102
RTVSPropertyOp5
 70
     1
102
RTVSPropertyOp6
 70
     1
102
RTVSPropertyOp7
 70
     1
102
RTVSPropertyOp8
 70
     1
102
RTVSPropertyOp9
 70
     1
102
RTVSPropertyOp10
 70
     1
102
RTVSPropertyOp11
 70
     1
102
RTVSPropertyOp12
 70
     1
102
RTVSPropertyOp13
 70
     1
102
RTVSPropertyOp14
 70
     1
102
RTVSPropertyOp15
 70
     1
102
RTVSPropertyOp16
 70
     1
102
RTVSPropertyOp17
 70
     1
102
RTVSPropertyOp18
 70
     1
102
RTVSPropertyOp19
 70
     1
102
RTVSPropertyOp20
 70
     1
102
RTVSPropertyOp21
 70
     1
102
RTVSPropertyOp22
 70
     1
102
RTVSPropertyOp23
 70
     1
102
RTVSPropertyOp24
 70
     1
102
RTVSPropertyOp25
 70
     1
102
RTVSPropertyOp26
 70
     1
102
RTVSPropertyOp27
 70
     1
102
RTVSPropertyOp28
 70
     1
102
RTVSPropertyOp29
 70
     1
102
RTVSPropertyOp30
 70
     1
102
RTVSPropertyOp31
 70
     1
102
RTVSPropertyOp32
 70
     1
  0
XRECORD
  5
219C5
102
{ACAD_REACTORS
330
219C4
102
}
330
219C4
100
AcDbXrecord
280
     1
102
RTVSPost2010Prop28
280
     0
102
RTVSPost2010PropOp28
 70
     1
102
RTVSPost2010Prop29
280
     1
102
RTVSPost2010PropOp29
 70
     1
102
RTVSPost2010Prop30
280
     1
102
RTVSPost2010PropOp30
 70
     1
102
RTVSPost2010Prop31
280
     0
102
RTVSPost2010PropOp31
 70
     1
102
RTVSPost2010Prop32
280
     0
102
RTVSPost2010PropOp32
 70
     1
102
RTVSPost2010Prop33
280
     0
102
RTVSPost2010PropOp33
 70
     1
102
RTVSPost2010Prop34
280
     0
102
RTVSPost2010PropOp34
 70
     1
102
RTVSPost2010Prop35
280
     0
102
RTVSPost2010PropOp35
 70
     1
102
RTVSPost2010Prop36
280
     0
102
RTVSPost2010PropOp36
 70
     1
102
RTVSPost2010Prop37
 90
       50
102
RTVSPost2010PropOp37
 70
     1
102
RTVSPost2010Prop38
140
0.0
102
RTVSPost2010PropOp38
 70
     1
102
RTVSPost2010Prop39
140
1.0
102
RTVSPost2010PropOp39
 70
     1
102
RTVSPost2010Prop40
 90
        0
102
RTVSPost2010PropOp40
 70
     1
102
RTVSPost2010Prop41ColorIndex
 90
       18
102
RTVSPost2010Prop41ColorRGB
 90
        0
102
RTVSPost2010PropOp41
 70
     1
102
RTVSPost2010Prop42
 90
       50
102
RTVSPost2010PropOp42
 70
     1
102
RTVSPost2010Prop43
 90
        3
102
RTVSPost2010PropOp43
 70
     1
102
RTVSPost2010Prop44ColorIndex
 90
        5
102
RTVSPost2010Prop44ColorRGB
 90
      255
102
RTVSPost2010PropOp44
 70
     1
102
RTVSPost2010Prop45
280
     0
102
RTVSPost2010PropOp45
 70
     1
102
RTVSPost2010Prop46
 90
       50
102
RTVSPost2010PropOp46
 70
     1
102
RTVSPost2010Prop47
 90
       50
102
RTVSPost2010PropOp47
 70
     1
102
RTVSPost2010Prop48
 90
       50
102
RTVSPost2010PropOp48
 70
     1
102
RTVSPost2010Prop49
280
     0
102
RTVSPost2010PropOp49
 70
     1
102
RTVSPost2010Prop50
 90
       50
102
RTVSPost2010PropOp50
 70
     1
102
RTVSPost2010Prop51ColorIndex
 90
      256
102
RTVSPost2010Prop51ColorRGB
 90
-16777216
102
RTVSPost2010PropOp51
 70
     0
102
RTVSPost2010Prop52
140
1.0
102
RTVSPost2010PropOp52
 70
     0
102
RTVSPost2010Prop53
 90
        2
102
RTVSPost2010PropOp53
 70
     1
102
RTVSPost2010Prop54
  1
strokes_ogs.tif
102
RTVSPost2010PropOp54
 70
     1
102
RTVSPost2010Prop55
280
     0
102
RTVSPost2010PropOp55
 70
     1
102
RTVSPost2010Prop56
140
1.0
102
RTVSPost2010PropOp56
 70
     1
102
RTVSPost2010Prop57
140
1.0
102
RTVSPost2010PropOp57
 70
     1
102
RTVSPropertyOp33
 70
     1
102
RTVSPropertyOp34
 70
     1
102
RTVSPropertyOp35
 70
     1
102
RTVSPropertyOp36
 70
     1
102
RTVSPropertyOp37
 70
     1
102
RTVSPropertyOp38
 70
     1
102
RTVSPropertyOp39
 70
     1
102
RTVSPropertyOp40
 70
     1
102
RTVSPropertyOp41
 70
     1
102
RTVSPropertyOp42
 70
     1
102
RTVSPropertyOp43
 70
     1
102
RTVSPropertyOp44
 70
     1
102
RTVSPropertyOp45
 70
     1
102
RTVSPropertyOp46
 70
     1
102
RTVSPropertyOp47
 70
     1
102
RTVSPropertyOp48
 70
     1
102
RTVSPropertyOp49
 70
     1
102
RTVSPropertyOp50
 70
     1
102
RTVSPropertyOp51
 70
     0
102
RTVSPropertyOp52
 70
     0
102
RTVSPropertyOp53
 70
     1
102
RTVSPropertyOp54
 70
     1
102
RTVSPropertyOp55
 70
     1
102
RTVSPropertyOp56
 70
     1
102
RTVSPropertyOp57
 70
     1
102
RTVSPropertyOp58
 70
     1
102
RTVSPropertyOp59
 70
     1
102
RTVSPropertyOp60
 70
     1
102
RTVSPropertyOp61
 70
     1
102
RTVSPropertyOp62
 70
     1
102
RTVSPropertyOp0
 70
     1
102
RTVSPropertyOp1
 70
     1
102
RTVSPropertyOp2
 70
     1
102
RTVSPropertyOp3
 70
     1
102
RTVSPropertyOp4
 70
     1
102
RTVSPropertyOp5
 70
     1
102
RTVSPropertyOp6
 70
     1
102
RTVSPropertyOp7
 70
     1
102
RTVSPropertyOp8
 70
     1
102
RTVSPropertyOp9
 70
     1
102
RTVSPropertyOp10
 70
     1
102
RTVSPropertyOp11
 70
     1
102
RTVSPropertyOp12
 70
     1
102
RTVSPropertyOp13
 70
     1
102
RTVSPropertyOp14
 70
     1
102
RTVSPropertyOp15
 70
     1
102
RTVSPropertyOp16
 70
     1
102
RTVSPropertyOp17
 70
     1
102
RTVSPropertyOp18
 70
     1
102
RTVSPropertyOp19
 70
     1
102
RTVSPropertyOp20
 70
     1
102
RTVSPropertyOp21
 70
     1
102
RTVSPropertyOp22
 70
     1
102
RTVSPropertyOp23
 70
     1
102
RTVSPropertyOp24
 70
     1
102
RTVSPropertyOp25
 70
     1
102
RTVSPropertyOp26
 70
     1
102
RTVSPropertyOp27
 70
     1
102
RTVSPropertyOp28
 70
     1
102
RTVSPropertyOp29
 70
     1
102
RTVSPropertyOp30
 70
     1
102
RTVSPropertyOp31
 70
     1
102
RTVSPropertyOp32
 70
     1
  0
XRECORD
  5
219DF
102
{ACAD_REACTORS
330
219DE
102
}
330
219DE
100
AcDbXrecord
280
     1
102
RTVSPost2010Prop28
280
     0
102
RTVSPost2010PropOp28
 70
     0
102
RTVSPost2010Prop29
280
     1
102
RTVSPost2010PropOp29
 70
     0
102
RTVSPost2010Prop30
280
     1
102
RTVSPost2010PropOp30
 70
     0
102
RTVSPost2010Prop31
280
     0
102
RTVSPost2010PropOp31
 70
     0
102
RTVSPost2010Prop32
280
     0
102
RTVSPost2010PropOp32
 70
     0
102
RTVSPost2010Prop33
280
     0
102
RTVSPost2010PropOp33
 70
     1
102
RTVSPost2010Prop34
280
     0
102
RTVSPost2010PropOp34
 70
     1
102
RTVSPost2010Prop35
280
     0
102
RTVSPost2010PropOp35
 70
     1
102
RTVSPost2010Prop36
280
     0
102
RTVSPost2010PropOp36
 70
     1
102
RTVSPost2010Prop37
 90
       50
102
RTVSPost2010PropOp37
 70
     1
102
RTVSPost2010Prop38
140
0.0
102
RTVSPost2010PropOp38
 70
     1
102
RTVSPost2010Prop39
140
1.0
102
RTVSPost2010PropOp39
 70
     1
102
RTVSPost2010Prop40
 90
        0
102
RTVSPost2010PropOp40
 70
     1
102
RTVSPost2010Prop41ColorIndex
 90
       18
102
RTVSPost2010Prop41ColorRGB
 90
        0
102
RTVSPost2010PropOp41
 70
     1
102
RTVSPost2010Prop42
 90
       50
102
RTVSPost2010PropOp42
 70
     1
102
RTVSPost2010Prop43
 90
        3
102
RTVSPost2010PropOp43
 70
     1
102
RTVSPost2010Prop44ColorIndex
 90
        5
102
RTVSPost2010Prop44ColorRGB
 90
      255
102
RTVSPost2010PropOp44
 70
     1
102
RTVSPost2010Prop45
280
     0
102
RTVSPost2010PropOp45
 70
     1
102
RTVSPost2010Prop46
 90
       50
102
RTVSPost2010PropOp46
 70
     1
102
RTVSPost2010Prop47
 90
       50
102
RTVSPost2010PropOp47
 70
     1
102
RTVSPost2010Prop48
 90
       50
102
RTVSPost2010PropOp48
 70
     1
102
RTVSPost2010Prop49
280
     0
102
RTVSPost2010PropOp49
 70
     1
102
RTVSPost2010Prop50
 90
       50
102
RTVSPost2010PropOp50
 70
     1
102
RTVSPost2010Prop51ColorIndex
 90
      256
102
RTVSPost2010Prop51ColorRGB
 90
-16777216
102
RTVSPost2010PropOp51
 70
     0
102
RTVSPost2010Prop52
140
1.0
102
RTVSPost2010PropOp52
 70
     0
102
RTVSPost2010Prop53
 90
        2
102
RTVSPost2010PropOp53
 70
     1
102
RTVSPost2010Prop54
  1
strokes_ogs.tif
102
RTVSPost2010PropOp54
 70
     1
102
RTVSPost2010Prop55
280
     0
102
RTVSPost2010PropOp55
 70
     1
102
RTVSPost2010Prop56
140
1.0
102
RTVSPost2010PropOp56
 70
     1
102
RTVSPost2010Prop57
140
1.0
102
RTVSPost2010PropOp57
 70
     1
102
RTVSPropertyOp33
 70
     1
102
RTVSPropertyOp34
 70
     1
102
RTVSPropertyOp35
 70
     1
102
RTVSPropertyOp36
 70
     1
102
RTVSPropertyOp37
 70
     1
102
RTVSPropertyOp38
 70
     1
102
RTVSPropertyOp39
 70
     1
102
RTVSPropertyOp40
 70
     1
102
RTVSPropertyOp41
 70
     1
102
RTVSPropertyOp42
 70
     1
102
RTVSPropertyOp43
 70
     1
102
RTVSPropertyOp44
 70
     1
102
RTVSPropertyOp45
 70
     1
102
RTVSPropertyOp46
 70
     1
102
RTVSPropertyOp47
 70
     1
102
RTVSPropertyOp48
 70
     1
102
RTVSPropertyOp49
 70
     1
102
RTVSPropertyOp50
 70
     1
102
RTVSPropertyOp51
 70
     0
102
RTVSPropertyOp52
 70
     0
102
RTVSPropertyOp53
 70
     1
102
RTVSPropertyOp54
 70
     1
102
RTVSPropertyOp55
 70
     1
102
RTVSPropertyOp56
 70
     1
102
RTVSPropertyOp57
 70
     1
102
RTVSPropertyOp58
 70
     1
102
RTVSPropertyOp59
 70
     1
102
RTVSPropertyOp60
 70
     1
102
RTVSPropertyOp61
 70
     1
102
RTVSPropertyOp62
 70
     1
102
RTVSPropertyOp0
 70
     0
102
RTVSPropertyOp1
 70
     0
102
RTVSPropertyOp2
 70
     0
102
RTVSPropertyOp3
 70
     0
102
RTVSPropertyOp4
 70
     0
102
RTVSPropertyOp5
 70
     0
102
RTVSPropertyOp6
 70
     0
102
RTVSPropertyOp7
 70
     0
102
RTVSPropertyOp8
 70
     0
102
RTVSPropertyOp9
 70
     0
102
RTVSPropertyOp10
 70
     0
102
RTVSPropertyOp11
 70
     0
102
RTVSPropertyOp12
 70
     0
102
RTVSPropertyOp13
 70
     0
102
RTVSPropertyOp14
 70
     2
102
RTVSPropertyOp15
 70
     0
102
RTVSPropertyOp16
 70
     0
102
RTVSPropertyOp17
 70
     0
102
RTVSPropertyOp18
 70
     0
102
RTVSPropertyOp19
 70
     0
102
RTVSPropertyOp20
 70
     0
102
RTVSPropertyOp21
 70
     0
102
RTVSPropertyOp22
 70
     0
102
RTVSPropertyOp23
 70
     0
102
RTVSPropertyOp24
 70
     0
102
RTVSPropertyOp25
 70
     0
102
RTVSPropertyOp26
 70
     0
102
RTVSPropertyOp27
 70
     0
102
RTVSPropertyOp28
 70
     0
102
RTVSPropertyOp29
 70
     0
102
RTVSPropertyOp30
 70
     0
102
RTVSPropertyOp31
 70
     0
102
RTVSPropertyOp32
 70
     0
  0
XRECORD
  5
219CD
102
{ACAD_REACTORS
330
219CC
102
}
330
219CC
100
AcDbXrecord
280
     1
102
RTVSPost2010Prop28
280
     0
102
RTVSPost2010PropOp28
 70
     1
102
RTVSPost2010Prop29
280
     1
102
RTVSPost2010PropOp29
 70
     1
102
RTVSPost2010Prop30
280
     1
102
RTVSPost2010PropOp30
 70
     1
102
RTVSPost2010Prop31
280
     0
102
RTVSPost2010PropOp31
 70
     1
102
RTVSPost2010Prop32
280
     0
102
RTVSPost2010PropOp32
 70
     1
102
RTVSPost2010Prop33
280
     0
102
RTVSPost2010PropOp33
 70
     1
102
RTVSPost2010Prop34
280
     0
102
RTVSPost2010PropOp34
 70
     1
102
RTVSPost2010Prop35
280
     0
102
RTVSPost2010PropOp35
 70
     1
102
RTVSPost2010Prop36
280
     0
102
RTVSPost2010PropOp36
 70
     1
102
RTVSPost2010Prop37
 90
       50
102
RTVSPost2010PropOp37
 70
     1
102
RTVSPost2010Prop38
140
0.0
102
RTVSPost2010PropOp38
 70
     1
102
RTVSPost2010Prop39
140
1.0
102
RTVSPost2010PropOp39
 70
     1
102
RTVSPost2010Prop40
 90
        0
102
RTVSPost2010PropOp40
 70
     1
102
RTVSPost2010Prop41ColorIndex
 90
       18
102
RTVSPost2010Prop41ColorRGB
 90
        0
102
RTVSPost2010PropOp41
 70
     1
102
RTVSPost2010Prop42
 90
       50
102
RTVSPost2010PropOp42
 70
     1
102
RTVSPost2010Prop43
 90
        3
102
RTVSPost2010PropOp43
 70
     1
102
RTVSPost2010Prop44ColorIndex
 90
        5
102
RTVSPost2010Prop44ColorRGB
 90
      255
102
RTVSPost2010PropOp44
 70
     1
102
RTVSPost2010Prop45
280
     0
102
RTVSPost2010PropOp45
 70
     1
102
RTVSPost2010Prop46
 90
       50
102
RTVSPost2010PropOp46
 70
     1
102
RTVSPost2010Prop47
 90
       50
102
RTVSPost2010PropOp47
 70
     1
102
RTVSPost2010Prop48
 90
       50
102
RTVSPost2010PropOp48
 70
     1
102
RTVSPost2010Prop49
280
     0
102
RTVSPost2010PropOp49
 70
     1
102
RTVSPost2010Prop50
 90
       50
102
RTVSPost2010PropOp50
 70
     1
102
RTVSPost2010Prop51ColorIndex
 90
      256
102
RTVSPost2010Prop51ColorRGB
 90
-16777216
102
RTVSPost2010PropOp51
 70
     0
102
RTVSPost2010Prop52
140
1.0
102
RTVSPost2010PropOp52
 70
     0
102
RTVSPost2010Prop53
 90
        2
102
RTVSPost2010PropOp53
 70
     1
102
RTVSPost2010Prop54
  1
strokes_ogs.tif
102
RTVSPost2010PropOp54
 70
     1
102
RTVSPost2010Prop55
280
     0
102
RTVSPost2010PropOp55
 70
     1
102
RTVSPost2010Prop56
140
1.0
102
RTVSPost2010PropOp56
 70
     1
102
RTVSPost2010Prop57
140
1.0
102
RTVSPost2010PropOp57
 70
     1
102
RTVSPropertyOp33
 70
     1
102
RTVSPropertyOp34
 70
     1
102
RTVSPropertyOp35
 70
     1
102
RTVSPropertyOp36
 70
     1
102
RTVSPropertyOp37
 70
     1
102
RTVSPropertyOp38
 70
     1
102
RTVSPropertyOp39
 70
     1
102
RTVSPropertyOp40
 70
     1
102
RTVSPropertyOp41
 70
     1
102
RTVSPropertyOp42
 70
     1
102
RTVSPropertyOp43
 70
     1
102
RTVSPropertyOp44
 70
     1
102
RTVSPropertyOp45
 70
     1
102
RTVSPropertyOp46
 70
     1
102
RTVSPropertyOp47
 70
     1
102
RTVSPropertyOp48
 70
     1
102
RTVSPropertyOp49
 70
     1
102
RTVSPropertyOp50
 70
     1
102
RTVSPropertyOp51
 70
     0
102
RTVSPropertyOp52
 70
     0
102
RTVSPropertyOp53
 70
     1
102
RTVSPropertyOp54
 70
     1
102
RTVSPropertyOp55
 70
     1
102
RTVSPropertyOp56
 70
     1
102
RTVSPropertyOp57
 70
     1
102
RTVSPropertyOp58
 70
     1
102
RTVSPropertyOp59
 70
     1
102
RTVSPropertyOp60
 70
     1
102
RTVSPropertyOp61
 70
     1
102
RTVSPropertyOp62
 70
     1
102
RTVSPropertyOp0
 70
     1
102
RTVSPropertyOp1
 70
     1
102
RTVSPropertyOp2
 70
     1
102
RTVSPropertyOp3
 70
     1
102
RTVSPropertyOp4
 70
     1
102
RTVSPropertyOp5
 70
     1
102
RTVSPropertyOp6
 70
     1
102
RTVSPropertyOp7
 70
     1
102
RTVSPropertyOp8
 70
     1
102
RTVSPropertyOp9
 70
     1
102
RTVSPropertyOp10
 70
     1
102
RTVSPropertyOp11
 70
     1
102
RTVSPropertyOp12
 70
     1
102
RTVSPropertyOp13
 70
     1
102
RTVSPropertyOp14
 70
     1
102
RTVSPropertyOp15
 70
     1
102
RTVSPropertyOp16
 70
     1
102
RTVSPropertyOp17
 70
     1
102
RTVSPropertyOp18
 70
     1
102
RTVSPropertyOp19
 70
     1
102
RTVSPropertyOp20
 70
     1
102
RTVSPropertyOp21
 70
     1
102
RTVSPropertyOp22
 70
     1
102
RTVSPropertyOp23
 70
     1
102
RTVSPropertyOp24
 70
     1
102
RTVSPropertyOp25
 70
     1
102
RTVSPropertyOp26
 70
     1
102
RTVSPropertyOp27
 70
     1
102
RTVSPropertyOp28
 70
     1
102
RTVSPropertyOp29
 70
     1
102
RTVSPropertyOp30
 70
     1
102
RTVSPropertyOp31
 70
     1
102
RTVSPropertyOp32
 70
     1
  0
XRECORD
  5
219B1
102
{ACAD_REACTORS
330
219B0
102
}
330
219B0
100
AcDbXrecord
280
     1
102
RTVSPost2010Prop28
280
     0
102
RTVSPost2010PropOp28
 70
     1
102
RTVSPost2010Prop29
280
     1
102
RTVSPost2010PropOp29
 70
     1
102
RTVSPost2010Prop30
280
     1
102
RTVSPost2010PropOp30
 70
     1
102
RTVSPost2010Prop31
280
     0
102
RTVSPost2010PropOp31
 70
     1
102
RTVSPost2010Prop32
280
     0
102
RTVSPost2010PropOp32
 70
     1
102
RTVSPost2010Prop33
280
     0
102
RTVSPost2010PropOp33
 70
     1
102
RTVSPost2010Prop34
280
     0
102
RTVSPost2010PropOp34
 70
     1
102
RTVSPost2010Prop35
280
     0
102
RTVSPost2010PropOp35
 70
     1
102
RTVSPost2010Prop36
280
     0
102
RTVSPost2010PropOp36
 70
     1
102
RTVSPost2010Prop37
 90
       50
102
RTVSPost2010PropOp37
 70
     1
102
RTVSPost2010Prop38
140
0.0
102
RTVSPost2010PropOp38
 70
     1
102
RTVSPost2010Prop39
140
1.0
102
RTVSPost2010PropOp39
 70
     1
102
RTVSPost2010Prop40
 90
        0
102
RTVSPost2010PropOp40
 70
     1
102
RTVSPost2010Prop41ColorIndex
 90
       18
102
RTVSPost2010Prop41ColorRGB
 90
        0
102
RTVSPost2010PropOp41
 70
     1
102
RTVSPost2010Prop42
 90
       50
102
RTVSPost2010PropOp42
 70
     1
102
RTVSPost2010Prop43
 90
        3
102
RTVSPost2010PropOp43
 70
     1
102
RTVSPost2010Prop44ColorIndex
 90
        5
102
RTVSPost2010Prop44ColorRGB
 90
      255
102
RTVSPost2010PropOp44
 70
     1
102
RTVSPost2010Prop45
280
     0
102
RTVSPost2010PropOp45
 70
     1
102
RTVSPost2010Prop46
 90
       50
102
RTVSPost2010PropOp46
 70
     1
102
RTVSPost2010Prop47
 90
       50
102
RTVSPost2010PropOp47
 70
     1
102
RTVSPost2010Prop48
 90
       50
102
RTVSPost2010PropOp48
 70
     1
102
RTVSPost2010Prop49
280
     0
102
RTVSPost2010PropOp49
 70
     1
102
RTVSPost2010Prop50
 90
       50
102
RTVSPost2010PropOp50
 70
     1
102
RTVSPost2010Prop51ColorIndex
 90
      256
102
RTVSPost2010Prop51ColorRGB
 90
-16777216
102
RTVSPost2010PropOp51
 70
     0
102
RTVSPost2010Prop52
140
1.0
102
RTVSPost2010PropOp52
 70
     0
102
RTVSPost2010Prop53
 90
        2
102
RTVSPost2010PropOp53
 70
     1
102
RTVSPost2010Prop54
  1
strokes_ogs.tif
102
RTVSPost2010PropOp54
 70
     1
102
RTVSPost2010Prop55
280
     0
102
RTVSPost2010PropOp55
 70
     1
102
RTVSPost2010Prop56
140
1.0
102
RTVSPost2010PropOp56
 70
     1
102
RTVSPost2010Prop57
140
1.0
102
RTVSPost2010PropOp57
 70
     1
102
RTVSPropertyOp33
 70
     1
102
RTVSPropertyOp34
 70
     1
102
RTVSPropertyOp35
 70
     1
102
RTVSPropertyOp36
 70
     1
102
RTVSPropertyOp37
 70
     1
102
RTVSPropertyOp38
 70
     1
102
RTVSPropertyOp39
 70
     1
102
RTVSPropertyOp40
 70
     1
102
RTVSPropertyOp41
 70
     1
102
RTVSPropertyOp42
 70
     1
102
RTVSPropertyOp43
 70
     1
102
RTVSPropertyOp44
 70
     1
102
RTVSPropertyOp45
 70
     1
102
RTVSPropertyOp46
 70
     1
102
RTVSPropertyOp47
 70
     1
102
RTVSPropertyOp48
 70
     1
102
RTVSPropertyOp49
 70
     1
102
RTVSPropertyOp50
 70
     1
102
RTVSPropertyOp51
 70
     0
102
RTVSPropertyOp52
 70
     0
102
RTVSPropertyOp53
 70
     1
102
RTVSPropertyOp54
 70
     1
102
RTVSPropertyOp55
 70
     1
102
RTVSPropertyOp56
 70
     1
102
RTVSPropertyOp57
 70
     1
102
RTVSPropertyOp58
 70
     1
102
RTVSPropertyOp59
 70
     1
102
RTVSPropertyOp60
 70
     1
102
RTVSPropertyOp61
 70
     1
102
RTVSPropertyOp62
 70
     1
102
RTVSPropertyOp0
 70
     1
102
RTVSPropertyOp1
 70
     1
102
RTVSPropertyOp2
 70
     1
102
RTVSPropertyOp3
 70
     1
102
RTVSPropertyOp4
 70
     1
102
RTVSPropertyOp5
 70
     1
102
RTVSPropertyOp6
 70
     1
102
RTVSPropertyOp7
 70
     1
102
RTVSPropertyOp8
 70
     1
102
RTVSPropertyOp9
 70
     1
102
RTVSPropertyOp10
 70
     1
102
RTVSPropertyOp11
 70
     1
102
RTVSPropertyOp12
 70
     1
102
RTVSPropertyOp13
 70
     1
102
RTVSPropertyOp14
 70
     1
102
RTVSPropertyOp15
 70
     1
102
RTVSPropertyOp16
 70
     1
102
RTVSPropertyOp17
 70
     1
102
RTVSPropertyOp18
 70
     1
102
RTVSPropertyOp19
 70
     1
102
RTVSPropertyOp20
 70
     1
102
RTVSPropertyOp21
 70
     1
102
RTVSPropertyOp22
 70
     1
102
RTVSPropertyOp23
 70
     1
102
RTVSPropertyOp24
 70
     1
102
RTVSPropertyOp25
 70
     1
102
RTVSPropertyOp26
 70
     1
102
RTVSPropertyOp27
 70
     1
102
RTVSPropertyOp28
 70
     1
102
RTVSPropertyOp29
 70
     1
102
RTVSPropertyOp30
 70
     1
102
RTVSPropertyOp31
 70
     1
102
RTVSPropertyOp32
 70
     1
  0
XRECORD
  5
219B3
102
{ACAD_REACTORS
330
219B2
102
}
330
219B2
100
AcDbXrecord
280
     1
102
RTVSPost2010Prop28
280
     0
102
RTVSPost2010PropOp28
 70
     1
102
RTVSPost2010Prop29
280
     1
102
RTVSPost2010PropOp29
 70
     1
102
RTVSPost2010Prop30
280
     1
102
RTVSPost2010PropOp30
 70
     1
102
RTVSPost2010Prop31
280
     0
102
RTVSPost2010PropOp31
 70
     1
102
RTVSPost2010Prop32
280
     0
102
RTVSPost2010PropOp32
 70
     1
102
RTVSPost2010Prop33
280
     0
102
RTVSPost2010PropOp33
 70
     1
102
RTVSPost2010Prop34
280
     0
102
RTVSPost2010PropOp34
 70
     1
102
RTVSPost2010Prop35
280
     0
102
RTVSPost2010PropOp35
 70
     1
102
RTVSPost2010Prop36
280
     0
102
RTVSPost2010PropOp36
 70
     1
102
RTVSPost2010Prop37
 90
       50
102
RTVSPost2010PropOp37
 70
     1
102
RTVSPost2010Prop38
140
0.0
102
RTVSPost2010PropOp38
 70
     1
102
RTVSPost2010Prop39
140
1.0
102
RTVSPost2010PropOp39
 70
     1
102
RTVSPost2010Prop40
 90
        0
102
RTVSPost2010PropOp40
 70
     1
102
RTVSPost2010Prop41ColorIndex
 90
       18
102
RTVSPost2010Prop41ColorRGB
 90
        0
102
RTVSPost2010PropOp41
 70
     1
102
RTVSPost2010Prop42
 90
       50
102
RTVSPost2010PropOp42
 70
     1
102
RTVSPost2010Prop43
 90
        3
102
RTVSPost2010PropOp43
 70
     1
102
RTVSPost2010Prop44ColorIndex
 90
        5
102
RTVSPost2010Prop44ColorRGB
 90
      255
102
RTVSPost2010PropOp44
 70
     1
102
RTVSPost2010Prop45
280
     0
102
RTVSPost2010PropOp45
 70
     1
102
RTVSPost2010Prop46
 90
       50
102
RTVSPost2010PropOp46
 70
     1
102
RTVSPost2010Prop47
 90
       50
102
RTVSPost2010PropOp47
 70
     1
102
RTVSPost2010Prop48
 90
       50
102
RTVSPost2010PropOp48
 70
     1
102
RTVSPost2010Prop49
280
     0
102
RTVSPost2010PropOp49
 70
     1
102
RTVSPost2010Prop50
 90
       50
102
RTVSPost2010PropOp50
 70
     1
102
RTVSPost2010Prop51ColorIndex
 90
      256
102
RTVSPost2010Prop51ColorRGB
 90
-16777216
102
RTVSPost2010PropOp51
 70
     0
102
RTVSPost2010Prop52
140
1.0
102
RTVSPost2010PropOp52
 70
     0
102
RTVSPost2010Prop53
 90
        2
102
RTVSPost2010PropOp53
 70
     1
102
RTVSPost2010Prop54
  1
strokes_ogs.tif
102
RTVSPost2010PropOp54
 70
     1
102
RTVSPost2010Prop55
280
     0
102
RTVSPost2010PropOp55
 70
     1
102
RTVSPost2010Prop56
140
1.0
102
RTVSPost2010PropOp56
 70
     1
102
RTVSPost2010Prop57
140
1.0
102
RTVSPost2010PropOp57
 70
     1
102
RTVSPropertyOp33
 70
     1
102
RTVSPropertyOp34
 70
     1
102
RTVSPropertyOp35
 70
     1
102
RTVSPropertyOp36
 70
     1
102
RTVSPropertyOp37
 70
     1
102
RTVSPropertyOp38
 70
     1
102
RTVSPropertyOp39
 70
     1
102
RTVSPropertyOp40
 70
     1
102
RTVSPropertyOp41
 70
     1
102
RTVSPropertyOp42
 70
     1
102
RTVSPropertyOp43
 70
     1
102
RTVSPropertyOp44
 70
     1
102
RTVSPropertyOp45
 70
     1
102
RTVSPropertyOp46
 70
     1
102
RTVSPropertyOp47
 70
     1
102
RTVSPropertyOp48
 70
     1
102
RTVSPropertyOp49
 70
     1
102
RTVSPropertyOp50
 70
     1
102
RTVSPropertyOp51
 70
     0
102
RTVSPropertyOp52
 70
     0
102
RTVSPropertyOp53
 70
     1
102
RTVSPropertyOp54
 70
     1
102
RTVSPropertyOp55
 70
     1
102
RTVSPropertyOp56
 70
     1
102
RTVSPropertyOp57
 70
     1
102
RTVSPropertyOp58
 70
     1
102
RTVSPropertyOp59
 70
     1
102
RTVSPropertyOp60
 70
     1
102
RTVSPropertyOp61
 70
     1
102
RTVSPropertyOp62
 70
     1
102
RTVSPropertyOp0
 70
     1
102
RTVSPropertyOp1
 70
     1
102
RTVSPropertyOp2
 70
     1
102
RTVSPropertyOp3
 70
     1
102
RTVSPropertyOp4
 70
     1
102
RTVSPropertyOp5
 70
     1
102
RTVSPropertyOp6
 70
     1
102
RTVSPropertyOp7
 70
     1
102
RTVSPropertyOp8
 70
     1
102
RTVSPropertyOp9
 70
     1
102
RTVSPropertyOp10
 70
     1
102
RTVSPropertyOp11
 70
     1
102
RTVSPropertyOp12
 70
     1
102
RTVSPropertyOp13
 70
     1
102
RTVSPropertyOp14
 70
     1
102
RTVSPropertyOp15
 70
     1
102
RTVSPropertyOp16
 70
     1
102
RTVSPropertyOp17
 70
     1
102
RTVSPropertyOp18
 70
     1
102
RTVSPropertyOp19
 70
     1
102
RTVSPropertyOp20
 70
     1
102
RTVSPropertyOp21
 70
     1
102
RTVSPropertyOp22
 70
     1
102
RTVSPropertyOp23
 70
     1
102
RTVSPropertyOp24
 70
     1
102
RTVSPropertyOp25
 70
     1
102
RTVSPropertyOp26
 70
     1
102
RTVSPropertyOp27
 70
     1
102
RTVSPropertyOp28
 70
     1
102
RTVSPropertyOp29
 70
     1
102
RTVSPropertyOp30
 70
     1
102
RTVSPropertyOp31
 70
     1
102
RTVSPropertyOp32
 70
     1
  0
XRECORD
  5
219B5
102
{ACAD_REACTORS
330
219B4
102
}
330
219B4
100
AcDbXrecord
280
     1
102
RTVSPost2010Prop28
280
     0
102
RTVSPost2010PropOp28
 70
     1
102
RTVSPost2010Prop29
280
     1
102
RTVSPost2010PropOp29
 70
     1
102
RTVSPost2010Prop30
280
     1
102
RTVSPost2010PropOp30
 70
     1
102
RTVSPost2010Prop31
280
     0
102
RTVSPost2010PropOp31
 70
     1
102
RTVSPost2010Prop32
280
     0
102
RTVSPost2010PropOp32
 70
     1
102
RTVSPost2010Prop33
280
     0
102
RTVSPost2010PropOp33
 70
     1
102
RTVSPost2010Prop34
280
     0
102
RTVSPost2010PropOp34
 70
     1
102
RTVSPost2010Prop35
280
     0
102
RTVSPost2010PropOp35
 70
     1
102
RTVSPost2010Prop36
280
     0
102
RTVSPost2010PropOp36
 70
     1
102
RTVSPost2010Prop37
 90
       50
102
RTVSPost2010PropOp37
 70
     1
102
RTVSPost2010Prop38
140
0.0
102
RTVSPost2010PropOp38
 70
     1
102
RTVSPost2010Prop39
140
1.0
102
RTVSPost2010PropOp39
 70
     1
102
RTVSPost2010Prop40
 90
        0
102
RTVSPost2010PropOp40
 70
     1
102
RTVSPost2010Prop41ColorIndex
 90
       18
102
RTVSPost2010Prop41ColorRGB
 90
        0
102
RTVSPost2010PropOp41
 70
     1
102
RTVSPost2010Prop42
 90
       50
102
RTVSPost2010PropOp42
 70
     1
102
RTVSPost2010Prop43
 90
        3
102
RTVSPost2010PropOp43
 70
     1
102
RTVSPost2010Prop44ColorIndex
 90
        5
102
RTVSPost2010Prop44ColorRGB
 90
      255
102
RTVSPost2010PropOp44
 70
     1
102
RTVSPost2010Prop45
280
     0
102
RTVSPost2010PropOp45
 70
     1
102
RTVSPost2010Prop46
 90
       50
102
RTVSPost2010PropOp46
 70
     1
102
RTVSPost2010Prop47
 90
       50
102
RTVSPost2010PropOp47
 70
     1
102
RTVSPost2010Prop48
 90
       50
102
RTVSPost2010PropOp48
 70
     1
102
RTVSPost2010Prop49
280
     0
102
RTVSPost2010PropOp49
 70
     1
102
RTVSPost2010Prop50
 90
       50
102
RTVSPost2010PropOp50
 70
     1
102
RTVSPost2010Prop51ColorIndex
 90
      256
102
RTVSPost2010Prop51ColorRGB
 90
-16777216
102
RTVSPost2010PropOp51
 70
     0
102
RTVSPost2010Prop52
140
1.0
102
RTVSPost2010PropOp52
 70
     0
102
RTVSPost2010Prop53
 90
        2
102
RTVSPost2010PropOp53
 70
     1
102
RTVSPost2010Prop54
  1
strokes_ogs.tif
102
RTVSPost2010PropOp54
 70
     1
102
RTVSPost2010Prop55
280
     0
102
RTVSPost2010PropOp55
 70
     1
102
RTVSPost2010Prop56
140
1.0
102
RTVSPost2010PropOp56
 70
     1
102
RTVSPost2010Prop57
140
1.0
102
RTVSPost2010PropOp57
 70
     1
102
RTVSPropertyOp33
 70
     1
102
RTVSPropertyOp34
 70
     1
102
RTVSPropertyOp35
 70
     1
102
RTVSPropertyOp36
 70
     1
102
RTVSPropertyOp37
 70
     1
102
RTVSPropertyOp38
 70
     1
102
RTVSPropertyOp39
 70
     1
102
RTVSPropertyOp40
 70
     1
102
RTVSPropertyOp41
 70
     1
102
RTVSPropertyOp42
 70
     1
102
RTVSPropertyOp43
 70
     1
102
RTVSPropertyOp44
 70
     1
102
RTVSPropertyOp45
 70
     1
102
RTVSPropertyOp46
 70
     1
102
RTVSPropertyOp47
 70
     1
102
RTVSPropertyOp48
 70
     1
102
RTVSPropertyOp49
 70
     1
102
RTVSPropertyOp50
 70
     1
102
RTVSPropertyOp51
 70
     0
102
RTVSPropertyOp52
 70
     0
102
RTVSPropertyOp53
 70
     1
102
RTVSPropertyOp54
 70
     1
102
RTVSPropertyOp55
 70
     1
102
RTVSPropertyOp56
 70
     1
102
RTVSPropertyOp57
 70
     1
102
RTVSPropertyOp58
 70
     1
102
RTVSPropertyOp59
 70
     1
102
RTVSPropertyOp60
 70
     1
102
RTVSPropertyOp61
 70
     1
102
RTVSPropertyOp62
 70
     1
102
RTVSPropertyOp0
 70
     1
102
RTVSPropertyOp1
 70
     1
102
RTVSPropertyOp2
 70
     1
102
RTVSPropertyOp3
 70
     1
102
RTVSPropertyOp4
 70
     1
102
RTVSPropertyOp5
 70
     1
102
RTVSPropertyOp6
 70
     1
102
RTVSPropertyOp7
 70
     1
102
RTVSPropertyOp8
 70
     1
102
RTVSPropertyOp9
 70
     1
102
RTVSPropertyOp10
 70
     1
102
RTVSPropertyOp11
 70
     1
102
RTVSPropertyOp12
 70
     1
102
RTVSPropertyOp13
 70
     1
102
RTVSPropertyOp14
 70
     1
102
RTVSPropertyOp15
 70
     1
102
RTVSPropertyOp16
 70
     1
102
RTVSPropertyOp17
 70
     1
102
RTVSPropertyOp18
 70
     1
102
RTVSPropertyOp19
 70
     1
102
RTVSPropertyOp20
 70
     1
102
RTVSPropertyOp21
 70
     1
102
RTVSPropertyOp22
 70
     1
102
RTVSPropertyOp23
 70
     1
102
RTVSPropertyOp24
 70
     1
102
RTVSPropertyOp25
 70
     1
102
RTVSPropertyOp26
 70
     1
102
RTVSPropertyOp27
 70
     1
102
RTVSPropertyOp28
 70
     1
102
RTVSPropertyOp29
 70
     1
102
RTVSPropertyOp30
 70
     1
102
RTVSPropertyOp31
 70
     1
102
RTVSPropertyOp32
 70
     1
  0
XRECORD
  5
219B7
102
{ACAD_REACTORS
330
219B6
102
}
330
219B6
100
AcDbXrecord
280
     1
102
RTVSPost2010Prop28
280
     0
102
RTVSPost2010PropOp28
 70
     1
102
RTVSPost2010Prop29
280
     1
102
RTVSPost2010PropOp29
 70
     1
102
RTVSPost2010Prop30
280
     1
102
RTVSPost2010PropOp30
 70
     1
102
RTVSPost2010Prop31
280
     0
102
RTVSPost2010PropOp31
 70
     1
102
RTVSPost2010Prop32
280
     0
102
RTVSPost2010PropOp32
 70
     1
102
RTVSPost2010Prop33
280
     0
102
RTVSPost2010PropOp33
 70
     1
102
RTVSPost2010Prop34
280
     0
102
RTVSPost2010PropOp34
 70
     1
102
RTVSPost2010Prop35
280
     0
102
RTVSPost2010PropOp35
 70
     1
102
RTVSPost2010Prop36
280
     0
102
RTVSPost2010PropOp36
 70
     1
102
RTVSPost2010Prop37
 90
       50
102
RTVSPost2010PropOp37
 70
     1
102
RTVSPost2010Prop38
140
0.0
102
RTVSPost2010PropOp38
 70
     1
102
RTVSPost2010Prop39
140
1.0
102
RTVSPost2010PropOp39
 70
     1
102
RTVSPost2010Prop40
 90
        0
102
RTVSPost2010PropOp40
 70
     1
102
RTVSPost2010Prop41ColorIndex
 90
       18
102
RTVSPost2010Prop41ColorRGB
 90
        0
102
RTVSPost2010PropOp41
 70
     1
102
RTVSPost2010Prop42
 90
       50
102
RTVSPost2010PropOp42
 70
     1
102
RTVSPost2010Prop43
 90
        3
102
RTVSPost2010PropOp43
 70
     1
102
RTVSPost2010Prop44ColorIndex
 90
        5
102
RTVSPost2010Prop44ColorRGB
 90
      255
102
RTVSPost2010PropOp44
 70
     1
102
RTVSPost2010Prop45
280
     0
102
RTVSPost2010PropOp45
 70
     1
102
RTVSPost2010Prop46
 90
       50
102
RTVSPost2010PropOp46
 70
     1
102
RTVSPost2010Prop47
 90
       50
102
RTVSPost2010PropOp47
 70
     1
102
RTVSPost2010Prop48
 90
       50
102
RTVSPost2010PropOp48
 70
     1
102
RTVSPost2010Prop49
280
     0
102
RTVSPost2010PropOp49
 70
     1
102
RTVSPost2010Prop50
 90
       50
102
RTVSPost2010PropOp50
 70
     1
102
RTVSPost2010Prop51ColorIndex
 90
      256
102
RTVSPost2010Prop51ColorRGB
 90
-16777216
102
RTVSPost2010PropOp51
 70
     0
102
RTVSPost2010Prop52
140
1.0
102
RTVSPost2010PropOp52
 70
     0
102
RTVSPost2010Prop53
 90
        2
102
RTVSPost2010PropOp53
 70
     1
102
RTVSPost2010Prop54
  1
strokes_ogs.tif
102
RTVSPost2010PropOp54
 70
     1
102
RTVSPost2010Prop55
280
     0
102
RTVSPost2010PropOp55
 70
     1
102
RTVSPost2010Prop56
140
1.0
102
RTVSPost2010PropOp56
 70
     1
102
RTVSPost2010Prop57
140
1.0
102
RTVSPost2010PropOp57
 70
     1
102
RTVSPropertyOp33
 70
     1
102
RTVSPropertyOp34
 70
     1
102
RTVSPropertyOp35
 70
     1
102
RTVSPropertyOp36
 70
     1
102
RTVSPropertyOp37
 70
     1
102
RTVSPropertyOp38
 70
     1
102
RTVSPropertyOp39
 70
     1
102
RTVSPropertyOp40
 70
     1
102
RTVSPropertyOp41
 70
     1
102
RTVSPropertyOp42
 70
     1
102
RTVSPropertyOp43
 70
     1
102
RTVSPropertyOp44
 70
     1
102
RTVSPropertyOp45
 70
     1
102
RTVSPropertyOp46
 70
     1
102
RTVSPropertyOp47
 70
     1
102
RTVSPropertyOp48
 70
     1
102
RTVSPropertyOp49
 70
     1
102
RTVSPropertyOp50
 70
     1
102
RTVSPropertyOp51
 70
     0
102
RTVSPropertyOp52
 70
     0
102
RTVSPropertyOp53
 70
     1
102
RTVSPropertyOp54
 70
     1
102
RTVSPropertyOp55
 70
     1
102
RTVSPropertyOp56
 70
     1
102
RTVSPropertyOp57
 70
     1
102
RTVSPropertyOp58
 70
     1
102
RTVSPropertyOp59
 70
     1
102
RTVSPropertyOp60
 70
     1
102
RTVSPropertyOp61
 70
     1
102
RTVSPropertyOp62
 70
     1
102
RTVSPropertyOp0
 70
     1
102
RTVSPropertyOp1
 70
     1
102
RTVSPropertyOp2
 70
     1
102
RTVSPropertyOp3
 70
     1
102
RTVSPropertyOp4
 70
     1
102
RTVSPropertyOp5
 70
     1
102
RTVSPropertyOp6
 70
     1
102
RTVSPropertyOp7
 70
     1
102
RTVSPropertyOp8
 70
     1
102
RTVSPropertyOp9
 70
     1
102
RTVSPropertyOp10
 70
     1
102
RTVSPropertyOp11
 70
     1
102
RTVSPropertyOp12
 70
     1
102
RTVSPropertyOp13
 70
     1
102
RTVSPropertyOp14
 70
     1
102
RTVSPropertyOp15
 70
     1
102
RTVSPropertyOp16
 70
     1
102
RTVSPropertyOp17
 70
     1
102
RTVSPropertyOp18
 70
     1
102
RTVSPropertyOp19
 70
     1
102
RTVSPropertyOp20
 70
     1
102
RTVSPropertyOp21
 70
     1
102
RTVSPropertyOp22
 70
     1
102
RTVSPropertyOp23
 70
     1
102
RTVSPropertyOp24
 70
     1
102
RTVSPropertyOp25
 70
     1
102
RTVSPropertyOp26
 70
     1
102
RTVSPropertyOp27
 70
     1
102
RTVSPropertyOp28
 70
     1
102
RTVSPropertyOp29
 70
     1
102
RTVSPropertyOp30
 70
     1
102
RTVSPropertyOp31
 70
     1
102
RTVSPropertyOp32
 70
     1
  0
XRECORD
  5
219BF
102
{ACAD_REACTORS
330
219BE
102
}
330
219BE
100
AcDbXrecord
280
     1
102
RTVSPost2010Prop28
280
     0
102
RTVSPost2010PropOp28
 70
     1
102
RTVSPost2010Prop29
280
     1
102
RTVSPost2010PropOp29
 70
     1
102
RTVSPost2010Prop30
280
     1
102
RTVSPost2010PropOp30
 70
     1
102
RTVSPost2010Prop31
280
     0
102
RTVSPost2010PropOp31
 70
     1
102
RTVSPost2010Prop32
280
     0
102
RTVSPost2010PropOp32
 70
     1
102
RTVSPost2010Prop33
280
     0
102
RTVSPost2010PropOp33
 70
     1
102
RTVSPost2010Prop34
280
     0
102
RTVSPost2010PropOp34
 70
     1
102
RTVSPost2010Prop35
280
     0
102
RTVSPost2010PropOp35
 70
     1
102
RTVSPost2010Prop36
280
     0
102
RTVSPost2010PropOp36
 70
     1
102
RTVSPost2010Prop37
 90
       50
102
RTVSPost2010PropOp37
 70
     1
102
RTVSPost2010Prop38
140
0.0
102
RTVSPost2010PropOp38
 70
     1
102
RTVSPost2010Prop39
140
1.0
102
RTVSPost2010PropOp39
 70
     1
102
RTVSPost2010Prop40
 90
        0
102
RTVSPost2010PropOp40
 70
     1
102
RTVSPost2010Prop41ColorIndex
 90
       18
102
RTVSPost2010Prop41ColorRGB
 90
        0
102
RTVSPost2010PropOp41
 70
     1
102
RTVSPost2010Prop42
 90
       50
102
RTVSPost2010PropOp42
 70
     1
102
RTVSPost2010Prop43
 90
        3
102
RTVSPost2010PropOp43
 70
     1
102
RTVSPost2010Prop44ColorIndex
 90
        5
102
RTVSPost2010Prop44ColorRGB
 90
      255
102
RTVSPost2010PropOp44
 70
     1
102
RTVSPost2010Prop45
280
     0
102
RTVSPost2010PropOp45
 70
     1
102
RTVSPost2010Prop46
 90
       50
102
RTVSPost2010PropOp46
 70
     1
102
RTVSPost2010Prop47
 90
       50
102
RTVSPost2010PropOp47
 70
     1
102
RTVSPost2010Prop48
 90
       50
102
RTVSPost2010PropOp48
 70
     1
102
RTVSPost2010Prop49
280
     0
102
RTVSPost2010PropOp49
 70
     1
102
RTVSPost2010Prop50
 90
       50
102
RTVSPost2010PropOp50
 70
     1
102
RTVSPost2010Prop51ColorIndex
 90
      256
102
RTVSPost2010Prop51ColorRGB
 90
-16777216
102
RTVSPost2010PropOp51
 70
     0
102
RTVSPost2010Prop52
140
1.0
102
RTVSPost2010PropOp52
 70
     0
102
RTVSPost2010Prop53
 90
        2
102
RTVSPost2010PropOp53
 70
     1
102
RTVSPost2010Prop54
  1
strokes_ogs.tif
102
RTVSPost2010PropOp54
 70
     1
102
RTVSPost2010Prop55
280
     0
102
RTVSPost2010PropOp55
 70
     1
102
RTVSPost2010Prop56
140
1.0
102
RTVSPost2010PropOp56
 70
     1
102
RTVSPost2010Prop57
140
1.0
102
RTVSPost2010PropOp57
 70
     1
102
RTVSPropertyOp33
 70
     1
102
RTVSPropertyOp34
 70
     1
102
RTVSPropertyOp35
 70
     1
102
RTVSPropertyOp36
 70
     1
102
RTVSPropertyOp37
 70
     1
102
RTVSPropertyOp38
 70
     1
102
RTVSPropertyOp39
 70
     1
102
RTVSPropertyOp40
 70
     1
102
RTVSPropertyOp41
 70
     1
102
RTVSPropertyOp42
 70
     1
102
RTVSPropertyOp43
 70
     1
102
RTVSPropertyOp44
 70
     1
102
RTVSPropertyOp45
 70
     1
102
RTVSPropertyOp46
 70
     1
102
RTVSPropertyOp47
 70
     1
102
RTVSPropertyOp48
 70
     1
102
RTVSPropertyOp49
 70
     1
102
RTVSPropertyOp50
 70
     1
102
RTVSPropertyOp51
 70
     0
102
RTVSPropertyOp52
 70
     0
102
RTVSPropertyOp53
 70
     1
102
RTVSPropertyOp54
 70
     1
102
RTVSPropertyOp55
 70
     1
102
RTVSPropertyOp56
 70
     1
102
RTVSPropertyOp57
 70
     1
102
RTVSPropertyOp58
 70
     1
102
RTVSPropertyOp59
 70
     1
102
RTVSPropertyOp60
 70
     1
102
RTVSPropertyOp61
 70
     1
102
RTVSPropertyOp62
 70
     1
102
RTVSPropertyOp0
 70
     1
102
RTVSPropertyOp1
 70
     1
102
RTVSPropertyOp2
 70
     1
102
RTVSPropertyOp3
 70
     1
102
RTVSPropertyOp4
 70
     1
102
RTVSPropertyOp5
 70
     1
102
RTVSPropertyOp6
 70
     1
102
RTVSPropertyOp7
 70
     1
102
RTVSPropertyOp8
 70
     1
102
RTVSPropertyOp9
 70
     1
102
RTVSPropertyOp10
 70
     1
102
RTVSPropertyOp11
 70
     1
102
RTVSPropertyOp12
 70
     1
102
RTVSPropertyOp13
 70
     1
102
RTVSPropertyOp14
 70
     1
102
RTVSPropertyOp15
 70
     1
102
RTVSPropertyOp16
 70
     1
102
RTVSPropertyOp17
 70
     1
102
RTVSPropertyOp18
 70
     1
102
RTVSPropertyOp19
 70
     1
102
RTVSPropertyOp20
 70
     1
102
RTVSPropertyOp21
 70
     1
102
RTVSPropertyOp22
 70
     1
102
RTVSPropertyOp23
 70
     1
102
RTVSPropertyOp24
 70
     1
102
RTVSPropertyOp25
 70
     1
102
RTVSPropertyOp26
 70
     1
102
RTVSPropertyOp27
 70
     1
102
RTVSPropertyOp28
 70
     1
102
RTVSPropertyOp29
 70
     1
102
RTVSPropertyOp30
 70
     1
102
RTVSPropertyOp31
 70
     1
102
RTVSPropertyOp32
 70
     1
  0
XRECORD
  5
219DB
102
{ACAD_REACTORS
330
219DA
102
}
330
219DA
100
AcDbXrecord
280
     1
102
RTVSPost2010Prop28
280
     0
102
RTVSPost2010PropOp28
 70
     0
102
RTVSPost2010Prop29
280
     1
102
RTVSPost2010PropOp29
 70
     0
102
RTVSPost2010Prop30
280
     1
102
RTVSPost2010PropOp30
 70
     0
102
RTVSPost2010Prop31
280
     0
102
RTVSPost2010PropOp31
 70
     0
102
RTVSPost2010Prop32
280
     0
102
RTVSPost2010PropOp32
 70
     0
102
RTVSPost2010Prop33
280
     0
102
RTVSPost2010PropOp33
 70
     1
102
RTVSPost2010Prop34
280
     0
102
RTVSPost2010PropOp34
 70
     1
102
RTVSPost2010Prop35
280
     0
102
RTVSPost2010PropOp35
 70
     1
102
RTVSPost2010Prop36
280
     0
102
RTVSPost2010PropOp36
 70
     1
102
RTVSPost2010Prop37
 90
       50
102
RTVSPost2010PropOp37
 70
     1
102
RTVSPost2010Prop38
140
0.0
102
RTVSPost2010PropOp38
 70
     1
102
RTVSPost2010Prop39
140
1.0
102
RTVSPost2010PropOp39
 70
     1
102
RTVSPost2010Prop40
 90
        0
102
RTVSPost2010PropOp40
 70
     1
102
RTVSPost2010Prop41ColorIndex
 90
       18
102
RTVSPost2010Prop41ColorRGB
 90
        0
102
RTVSPost2010PropOp41
 70
     1
102
RTVSPost2010Prop42
 90
       50
102
RTVSPost2010PropOp42
 70
     1
102
RTVSPost2010Prop43
 90
        3
102
RTVSPost2010PropOp43
 70
     1
102
RTVSPost2010Prop44ColorIndex
 90
        5
102
RTVSPost2010Prop44ColorRGB
 90
      255
102
RTVSPost2010PropOp44
 70
     1
102
RTVSPost2010Prop45
280
     0
102
RTVSPost2010PropOp45
 70
     1
102
RTVSPost2010Prop46
 90
       50
102
RTVSPost2010PropOp46
 70
     1
102
RTVSPost2010Prop47
 90
       50
102
RTVSPost2010PropOp47
 70
     1
102
RTVSPost2010Prop48
 90
       50
102
RTVSPost2010PropOp48
 70
     1
102
RTVSPost2010Prop49
280
     0
102
RTVSPost2010PropOp49
 70
     1
102
RTVSPost2010Prop50
 90
       50
102
RTVSPost2010PropOp50
 70
     1
102
RTVSPost2010Prop51ColorIndex
 90
      256
102
RTVSPost2010Prop51ColorRGB
 90
-16777216
102
RTVSPost2010PropOp51
 70
     0
102
RTVSPost2010Prop52
140
1.0
102
RTVSPost2010PropOp52
 70
     0
102
RTVSPost2010Prop53
 90
        2
102
RTVSPost2010PropOp53
 70
     1
102
RTVSPost2010Prop54
  1
strokes_ogs.tif
102
RTVSPost2010PropOp54
 70
     1
102
RTVSPost2010Prop55
280
     0
102
RTVSPost2010PropOp55
 70
     1
102
RTVSPost2010Prop56
140
1.0
102
RTVSPost2010PropOp56
 70
     1
102
RTVSPost2010Prop57
140
1.0
102
RTVSPost2010PropOp57
 70
     1
102
RTVSPropertyOp33
 70
     1
102
RTVSPropertyOp34
 70
     1
102
RTVSPropertyOp35
 70
     1
102
RTVSPropertyOp36
 70
     1
102
RTVSPropertyOp37
 70
     1
102
RTVSPropertyOp38
 70
     1
102
RTVSPropertyOp39
 70
     1
102
RTVSPropertyOp40
 70
     1
102
RTVSPropertyOp41
 70
     1
102
RTVSPropertyOp42
 70
     1
102
RTVSPropertyOp43
 70
     1
102
RTVSPropertyOp44
 70
     1
102
RTVSPropertyOp45
 70
     1
102
RTVSPropertyOp46
 70
     1
102
RTVSPropertyOp47
 70
     1
102
RTVSPropertyOp48
 70
     1
102
RTVSPropertyOp49
 70
     1
102
RTVSPropertyOp50
 70
     1
102
RTVSPropertyOp51
 70
     0
102
RTVSPropertyOp52
 70
     0
102
RTVSPropertyOp53
 70
     1
102
RTVSPropertyOp54
 70
     1
102
RTVSPropertyOp55
 70
     1
102
RTVSPropertyOp56
 70
     1
102
RTVSPropertyOp57
 70
     1
102
RTVSPropertyOp58
 70
     1
102
RTVSPropertyOp59
 70
     1
102
RTVSPropertyOp60
 70
     1
102
RTVSPropertyOp61
 70
     1
102
RTVSPropertyOp62
 70
     1
102
RTVSPropertyOp0
 70
     0
102
RTVSPropertyOp1
 70
     0
102
RTVSPropertyOp2
 70
     0
102
RTVSPropertyOp3
 70
     0
102
RTVSPropertyOp4
 70
     0
102
RTVSPropertyOp5
 70
     0
102
RTVSPropertyOp6
 70
     0
102
RTVSPropertyOp7
 70
     0
102
RTVSPropertyOp8
 70
     0
102
RTVSPropertyOp9
 70
     0
102
RTVSPropertyOp10
 70
     0
102
RTVSPropertyOp11
 70
     0
102
RTVSPropertyOp12
 70
     0
102
RTVSPropertyOp13
 70
     0
102
RTVSPropertyOp14
 70
     2
102
RTVSPropertyOp15
 70
     0
102
RTVSPropertyOp16
 70
     0
102
RTVSPropertyOp17
 70
     0
102
RTVSPropertyOp18
 70
     0
102
RTVSPropertyOp19
 70
     0
102
RTVSPropertyOp20
 70
     0
102
RTVSPropertyOp21
 70
     0
102
RTVSPropertyOp22
 70
     0
102
RTVSPropertyOp23
 70
     0
102
RTVSPropertyOp24
 70
     0
102
RTVSPropertyOp25
 70
     0
102
RTVSPropertyOp26
 70
     0
102
RTVSPropertyOp27
 70
     0
102
RTVSPropertyOp28
 70
     0
102
RTVSPropertyOp29
 70
     0
102
RTVSPropertyOp30
 70
     0
102
RTVSPropertyOp31
 70
     0
102
RTVSPropertyOp32
 70
     0
  0
XRECORD
  5
219CB
102
{ACAD_REACTORS
330
219CA
102
}
330
219CA
100
AcDbXrecord
280
     1
102
RTVSPost2010Prop28
280
     0
102
RTVSPost2010PropOp28
 70
     1
102
RTVSPost2010Prop29
280
     1
102
RTVSPost2010PropOp29
 70
     1
102
RTVSPost2010Prop30
280
     1
102
RTVSPost2010PropOp30
 70
     1
102
RTVSPost2010Prop31
280
     0
102
RTVSPost2010PropOp31
 70
     1
102
RTVSPost2010Prop32
280
     0
102
RTVSPost2010PropOp32
 70
     1
102
RTVSPost2010Prop33
280
     0
102
RTVSPost2010PropOp33
 70
     1
102
RTVSPost2010Prop34
280
     0
102
RTVSPost2010PropOp34
 70
     1
102
RTVSPost2010Prop35
280
     0
102
RTVSPost2010PropOp35
 70
     1
102
RTVSPost2010Prop36
280
     0
102
RTVSPost2010PropOp36
 70
     1
102
RTVSPost2010Prop37
 90
       50
102
RTVSPost2010PropOp37
 70
     1
102
RTVSPost2010Prop38
140
0.0
102
RTVSPost2010PropOp38
 70
     1
102
RTVSPost2010Prop39
140
1.0
102
RTVSPost2010PropOp39
 70
     1
102
RTVSPost2010Prop40
 90
        0
102
RTVSPost2010PropOp40
 70
     1
102
RTVSPost2010Prop41ColorIndex
 90
       18
102
RTVSPost2010Prop41ColorRGB
 90
        0
102
RTVSPost2010PropOp41
 70
     1
102
RTVSPost2010Prop42
 90
       50
102
RTVSPost2010PropOp42
 70
     1
102
RTVSPost2010Prop43
 90
        3
102
RTVSPost2010PropOp43
 70
     1
102
RTVSPost2010Prop44ColorIndex
 90
        5
102
RTVSPost2010Prop44ColorRGB
 90
      255
102
RTVSPost2010PropOp44
 70
     1
102
RTVSPost2010Prop45
280
     0
102
RTVSPost2010PropOp45
 70
     1
102
RTVSPost2010Prop46
 90
       50
102
RTVSPost2010PropOp46
 70
     1
102
RTVSPost2010Prop47
 90
       50
102
RTVSPost2010PropOp47
 70
     1
102
RTVSPost2010Prop48
 90
       50
102
RTVSPost2010PropOp48
 70
     1
102
RTVSPost2010Prop49
280
     0
102
RTVSPost2010PropOp49
 70
     1
102
RTVSPost2010Prop50
 90
       50
102
RTVSPost2010PropOp50
 70
     1
102
RTVSPost2010Prop51ColorIndex
 90
      256
102
RTVSPost2010Prop51ColorRGB
 90
-16777216
102
RTVSPost2010PropOp51
 70
     0
102
RTVSPost2010Prop52
140
1.0
102
RTVSPost2010PropOp52
 70
     0
102
RTVSPost2010Prop53
 90
        2
102
RTVSPost2010PropOp53
 70
     1
102
RTVSPost2010Prop54
  1
strokes_ogs.tif
102
RTVSPost2010PropOp54
 70
     1
102
RTVSPost2010Prop55
280
     0
102
RTVSPost2010PropOp55
 70
     1
102
RTVSPost2010Prop56
140
1.0
102
RTVSPost2010PropOp56
 70
     1
102
RTVSPost2010Prop57
140
1.0
102
RTVSPost2010PropOp57
 70
     1
102
RTVSPropertyOp33
 70
     1
102
RTVSPropertyOp34
 70
     1
102
RTVSPropertyOp35
 70
     1
102
RTVSPropertyOp36
 70
     1
102
RTVSPropertyOp37
 70
     1
102
RTVSPropertyOp38
 70
     1
102
RTVSPropertyOp39
 70
     1
102
RTVSPropertyOp40
 70
     1
102
RTVSPropertyOp41
 70
     1
102
RTVSPropertyOp42
 70
     1
102
RTVSPropertyOp43
 70
     1
102
RTVSPropertyOp44
 70
     1
102
RTVSPropertyOp45
 70
     1
102
RTVSPropertyOp46
 70
     1
102
RTVSPropertyOp47
 70
     1
102
RTVSPropertyOp48
 70
     1
102
RTVSPropertyOp49
 70
     1
102
RTVSPropertyOp50
 70
     1
102
RTVSPropertyOp51
 70
     0
102
RTVSPropertyOp52
 70
     0
102
RTVSPropertyOp53
 70
     1
102
RTVSPropertyOp54
 70
     1
102
RTVSPropertyOp55
 70
     1
102
RTVSPropertyOp56
 70
     1
102
RTVSPropertyOp57
 70
     1
102
RTVSPropertyOp58
 70
     1
102
RTVSPropertyOp59
 70
     1
102
RTVSPropertyOp60
 70
     1
102
RTVSPropertyOp61
 70
     1
102
RTVSPropertyOp62
 70
     1
102
RTVSPropertyOp0
 70
     1
102
RTVSPropertyOp1
 70
     1
102
RTVSPropertyOp2
 70
     1
102
RTVSPropertyOp3
 70
     1
102
RTVSPropertyOp4
 70
     1
102
RTVSPropertyOp5
 70
     1
102
RTVSPropertyOp6
 70
     1
102
RTVSPropertyOp7
 70
     1
102
RTVSPropertyOp8
 70
     1
102
RTVSPropertyOp9
 70
     1
102
RTVSPropertyOp10
 70
     1
102
RTVSPropertyOp11
 70
     1
102
RTVSPropertyOp12
 70
     1
102
RTVSPropertyOp13
 70
     1
102
RTVSPropertyOp14
 70
     1
102
RTVSPropertyOp15
 70
     1
102
RTVSPropertyOp16
 70
     1
102
RTVSPropertyOp17
 70
     1
102
RTVSPropertyOp18
 70
     1
102
RTVSPropertyOp19
 70
     1
102
RTVSPropertyOp20
 70
     1
102
RTVSPropertyOp21
 70
     1
102
RTVSPropertyOp22
 70
     1
102
RTVSPropertyOp23
 70
     1
102
RTVSPropertyOp24
 70
     1
102
RTVSPropertyOp25
 70
     1
102
RTVSPropertyOp26
 70
     1
102
RTVSPropertyOp27
 70
     1
102
RTVSPropertyOp28
 70
     1
102
RTVSPropertyOp29
 70
     1
102
RTVSPropertyOp30
 70
     1
102
RTVSPropertyOp31
 70
     1
102
RTVSPropertyOp32
 70
     1
  0
XRECORD
  5
219DD
102
{ACAD_REACTORS
330
219DC
102
}
330
219DC
100
AcDbXrecord
280
     1
102
RTVSPost2010Prop28
280
     0
102
RTVSPost2010PropOp28
 70
     0
102
RTVSPost2010Prop29
280
     1
102
RTVSPost2010PropOp29
 70
     0
102
RTVSPost2010Prop30
280
     1
102
RTVSPost2010PropOp30
 70
     0
102
RTVSPost2010Prop31
280
     0
102
RTVSPost2010PropOp31
 70
     0
102
RTVSPost2010Prop32
280
     0
102
RTVSPost2010PropOp32
 70
     0
102
RTVSPost2010Prop33
280
     0
102
RTVSPost2010PropOp33
 70
     1
102
RTVSPost2010Prop34
280
     0
102
RTVSPost2010PropOp34
 70
     1
102
RTVSPost2010Prop35
280
     0
102
RTVSPost2010PropOp35
 70
     1
102
RTVSPost2010Prop36
280
     0
102
RTVSPost2010PropOp36
 70
     1
102
RTVSPost2010Prop37
 90
       50
102
RTVSPost2010PropOp37
 70
     1
102
RTVSPost2010Prop38
140
0.0
102
RTVSPost2010PropOp38
 70
     1
102
RTVSPost2010Prop39
140
1.0
102
RTVSPost2010PropOp39
 70
     1
102
RTVSPost2010Prop40
 90
        0
102
RTVSPost2010PropOp40
 70
     1
102
RTVSPost2010Prop41ColorIndex
 90
       18
102
RTVSPost2010Prop41ColorRGB
 90
        0
102
RTVSPost2010PropOp41
 70
     1
102
RTVSPost2010Prop42
 90
       50
102
RTVSPost2010PropOp42
 70
     1
102
RTVSPost2010Prop43
 90
        3
102
RTVSPost2010PropOp43
 70
     1
102
RTVSPost2010Prop44ColorIndex
 90
        5
102
RTVSPost2010Prop44ColorRGB
 90
      255
102
RTVSPost2010PropOp44
 70
     1
102
RTVSPost2010Prop45
280
     0
102
RTVSPost2010PropOp45
 70
     1
102
RTVSPost2010Prop46
 90
       50
102
RTVSPost2010PropOp46
 70
     1
102
RTVSPost2010Prop47
 90
       50
102
RTVSPost2010PropOp47
 70
     1
102
RTVSPost2010Prop48
 90
       50
102
RTVSPost2010PropOp48
 70
     1
102
RTVSPost2010Prop49
280
     0
102
RTVSPost2010PropOp49
 70
     1
102
RTVSPost2010Prop50
 90
       50
102
RTVSPost2010PropOp50
 70
     1
102
RTVSPost2010Prop51ColorIndex
 90
      256
102
RTVSPost2010Prop51ColorRGB
 90
-16777216
102
RTVSPost2010PropOp51
 70
     0
102
RTVSPost2010Prop52
140
1.0
102
RTVSPost2010PropOp52
 70
     0
102
RTVSPost2010Prop53
 90
        2
102
RTVSPost2010PropOp53
 70
     1
102
RTVSPost2010Prop54
  1
strokes_ogs.tif
102
RTVSPost2010PropOp54
 70
     1
102
RTVSPost2010Prop55
280
     0
102
RTVSPost2010PropOp55
 70
     1
102
RTVSPost2010Prop56
140
1.0
102
RTVSPost2010PropOp56
 70
     1
102
RTVSPost2010Prop57
140
1.0
102
RTVSPost2010PropOp57
 70
     1
102
RTVSPropertyOp33
 70
     1
102
RTVSPropertyOp34
 70
     1
102
RTVSPropertyOp35
 70
     1
102
RTVSPropertyOp36
 70
     1
102
RTVSPropertyOp37
 70
     1
102
RTVSPropertyOp38
 70
     1
102
RTVSPropertyOp39
 70
     1
102
RTVSPropertyOp40
 70
     1
102
RTVSPropertyOp41
 70
     1
102
RTVSPropertyOp42
 70
     1
102
RTVSPropertyOp43
 70
     1
102
RTVSPropertyOp44
 70
     1
102
RTVSPropertyOp45
 70
     1
102
RTVSPropertyOp46
 70
     1
102
RTVSPropertyOp47
 70
     1
102
RTVSPropertyOp48
 70
     1
102
RTVSPropertyOp49
 70
     1
102
RTVSPropertyOp50
 70
     1
102
RTVSPropertyOp51
 70
     0
102
RTVSPropertyOp52
 70
     0
102
RTVSPropertyOp53
 70
     1
102
RTVSPropertyOp54
 70
     1
102
RTVSPropertyOp55
 70
     1
102
RTVSPropertyOp56
 70
     1
102
RTVSPropertyOp57
 70
     1
102
RTVSPropertyOp58
 70
     1
102
RTVSPropertyOp59
 70
     1
102
RTVSPropertyOp60
 70
     1
102
RTVSPropertyOp61
 70
     1
102
RTVSPropertyOp62
 70
     1
102
RTVSPropertyOp0
 70
     0
102
RTVSPropertyOp1
 70
     0
102
RTVSPropertyOp2
 70
     0
102
RTVSPropertyOp3
 70
     0
102
RTVSPropertyOp4
 70
     0
102
RTVSPropertyOp5
 70
     0
102
RTVSPropertyOp6
 70
     0
102
RTVSPropertyOp7
 70
     0
102
RTVSPropertyOp8
 70
     0
102
RTVSPropertyOp9
 70
     0
102
RTVSPropertyOp10
 70
     0
102
RTVSPropertyOp11
 70
     0
102
RTVSPropertyOp12
 70
     0
102
RTVSPropertyOp13
 70
     0
102
RTVSPropertyOp14
 70
     2
102
RTVSPropertyOp15
 70
     0
102
RTVSPropertyOp16
 70
     0
102
RTVSPropertyOp17
 70
     0
102
RTVSPropertyOp18
 70
     0
102
RTVSPropertyOp19
 70
     0
102
RTVSPropertyOp20
 70
     0
102
RTVSPropertyOp21
 70
     0
102
RTVSPropertyOp22
 70
     0
102
RTVSPropertyOp23
 70
     0
102
RTVSPropertyOp24
 70
     0
102
RTVSPropertyOp25
 70
     0
102
RTVSPropertyOp26
 70
     0
102
RTVSPropertyOp27
 70
     0
102
RTVSPropertyOp28
 70
     0
102
RTVSPropertyOp29
 70
     0
102
RTVSPropertyOp30
 70
     0
102
RTVSPropertyOp31
 70
     0
102
RTVSPropertyOp32
 70
     0
  0
XRECORD
  5
219C3
102
{ACAD_REACTORS
330
219C2
102
}
330
219C2
100
AcDbXrecord
280
     1
102
RTVSPost2010Prop28
280
     0
102
RTVSPost2010PropOp28
 70
     1
102
RTVSPost2010Prop29
280
     1
102
RTVSPost2010PropOp29
 70
     1
102
RTVSPost2010Prop30
280
     1
102
RTVSPost2010PropOp30
 70
     1
102
RTVSPost2010Prop31
280
     0
102
RTVSPost2010PropOp31
 70
     1
102
RTVSPost2010Prop32
280
     0
102
RTVSPost2010PropOp32
 70
     1
102
RTVSPost2010Prop33
280
     0
102
RTVSPost2010PropOp33
 70
     1
102
RTVSPost2010Prop34
280
     0
102
RTVSPost2010PropOp34
 70
     1
102
RTVSPost2010Prop35
280
     0
102
RTVSPost2010PropOp35
 70
     1
102
RTVSPost2010Prop36
280
     0
102
RTVSPost2010PropOp36
 70
     1
102
RTVSPost2010Prop37
 90
       50
102
RTVSPost2010PropOp37
 70
     1
102
RTVSPost2010Prop38
140
0.0
102
RTVSPost2010PropOp38
 70
     1
102
RTVSPost2010Prop39
140
1.0
102
RTVSPost2010PropOp39
 70
     1
102
RTVSPost2010Prop40
 90
        0
102
RTVSPost2010PropOp40
 70
     1
102
RTVSPost2010Prop41ColorIndex
 90
       18
102
RTVSPost2010Prop41ColorRGB
 90
        0
102
RTVSPost2010PropOp41
 70
     1
102
RTVSPost2010Prop42
 90
       50
102
RTVSPost2010PropOp42
 70
     1
102
RTVSPost2010Prop43
 90
        3
102
RTVSPost2010PropOp43
 70
     1
102
RTVSPost2010Prop44ColorIndex
 90
        5
102
RTVSPost2010Prop44ColorRGB
 90
      255
102
RTVSPost2010PropOp44
 70
     1
102
RTVSPost2010Prop45
280
     0
102
RTVSPost2010PropOp45
 70
     1
102
RTVSPost2010Prop46
 90
       50
102
RTVSPost2010PropOp46
 70
     1
102
RTVSPost2010Prop47
 90
       50
102
RTVSPost2010PropOp47
 70
     1
102
RTVSPost2010Prop48
 90
       50
102
RTVSPost2010PropOp48
 70
     1
102
RTVSPost2010Prop49
280
     0
102
RTVSPost2010PropOp49
 70
     1
102
RTVSPost2010Prop50
 90
       50
102
RTVSPost2010PropOp50
 70
     1
102
RTVSPost2010Prop51ColorIndex
 90
      256
102
RTVSPost2010Prop51ColorRGB
 90
-16777216
102
RTVSPost2010PropOp51
 70
     0
102
RTVSPost2010Prop52
140
1.0
102
RTVSPost2010PropOp52
 70
     0
102
RTVSPost2010Prop53
 90
        2
102
RTVSPost2010PropOp53
 70
     1
102
RTVSPost2010Prop54
  1
strokes_ogs.tif
102
RTVSPost2010PropOp54
 70
     1
102
RTVSPost2010Prop55
280
     0
102
RTVSPost2010PropOp55
 70
     1
102
RTVSPost2010Prop56
140
1.0
102
RTVSPost2010PropOp56
 70
     1
102
RTVSPost2010Prop57
140
1.0
102
RTVSPost2010PropOp57
 70
     1
102
RTVSPropertyOp33
 70
     1
102
RTVSPropertyOp34
 70
     1
102
RTVSPropertyOp35
 70
     1
102
RTVSPropertyOp36
 70
     1
102
RTVSPropertyOp37
 70
     1
102
RTVSPropertyOp38
 70
     1
102
RTVSPropertyOp39
 70
     1
102
RTVSPropertyOp40
 70
     1
102
RTVSPropertyOp41
 70
     1
102
RTVSPropertyOp42
 70
     1
102
RTVSPropertyOp43
 70
     1
102
RTVSPropertyOp44
 70
     1
102
RTVSPropertyOp45
 70
     1
102
RTVSPropertyOp46
 70
     1
102
RTVSPropertyOp47
 70
     1
102
RTVSPropertyOp48
 70
     1
102
RTVSPropertyOp49
 70
     1
102
RTVSPropertyOp50
 70
     1
102
RTVSPropertyOp51
 70
     0
102
RTVSPropertyOp52
 70
     0
102
RTVSPropertyOp53
 70
     1
102
RTVSPropertyOp54
 70
     1
102
RTVSPropertyOp55
 70
     1
102
RTVSPropertyOp56
 70
     1
102
RTVSPropertyOp57
 70
     1
102
RTVSPropertyOp58
 70
     1
102
RTVSPropertyOp59
 70
     1
102
RTVSPropertyOp60
 70
     1
102
RTVSPropertyOp61
 70
     1
102
RTVSPropertyOp62
 70
     1
102
RTVSPropertyOp0
 70
     1
102
RTVSPropertyOp1
 70
     1
102
RTVSPropertyOp2
 70
     1
102
RTVSPropertyOp3
 70
     1
102
RTVSPropertyOp4
 70
     1
102
RTVSPropertyOp5
 70
     1
102
RTVSPropertyOp6
 70
     1
102
RTVSPropertyOp7
 70
     1
102
RTVSPropertyOp8
 70
     1
102
RTVSPropertyOp9
 70
     1
102
RTVSPropertyOp10
 70
     1
102
RTVSPropertyOp11
 70
     1
102
RTVSPropertyOp12
 70
     1
102
RTVSPropertyOp13
 70
     1
102
RTVSPropertyOp14
 70
     1
102
RTVSPropertyOp15
 70
     1
102
RTVSPropertyOp16
 70
     1
102
RTVSPropertyOp17
 70
     1
102
RTVSPropertyOp18
 70
     1
102
RTVSPropertyOp19
 70
     1
102
RTVSPropertyOp20
 70
     1
102
RTVSPropertyOp21
 70
     1
102
RTVSPropertyOp22
 70
     1
102
RTVSPropertyOp23
 70
     1
102
RTVSPropertyOp24
 70
     1
102
RTVSPropertyOp25
 70
     1
102
RTVSPropertyOp26
 70
     1
102
RTVSPropertyOp27
 70
     1
102
RTVSPropertyOp28
 70
     1
102
RTVSPropertyOp29
 70
     1
102
RTVSPropertyOp30
 70
     1
102
RTVSPropertyOp31
 70
     1
102
RTVSPropertyOp32
 70
     1
  0
XRECORD
  5
219D9
102
{ACAD_REACTORS
330
219D8
102
}
330
219D8
100
AcDbXrecord
280
     1
102
RTVSPost2010Prop28
280
     0
102
RTVSPost2010PropOp28
 70
     1
102
RTVSPost2010Prop29
280
     1
102
RTVSPost2010PropOp29
 70
     1
102
RTVSPost2010Prop30
280
     1
102
RTVSPost2010PropOp30
 70
     1
102
RTVSPost2010Prop31
280
     0
102
RTVSPost2010PropOp31
 70
     1
102
RTVSPost2010Prop32
280
     0
102
RTVSPost2010PropOp32
 70
     1
102
RTVSPost2010Prop33
280
     0
102
RTVSPost2010PropOp33
 70
     1
102
RTVSPost2010Prop34
280
     0
102
RTVSPost2010PropOp34
 70
     1
102
RTVSPost2010Prop35
280
     0
102
RTVSPost2010PropOp35
 70
     1
102
RTVSPost2010Prop36
280
     0
102
RTVSPost2010PropOp36
 70
     1
102
RTVSPost2010Prop37
 90
       50
102
RTVSPost2010PropOp37
 70
     1
102
RTVSPost2010Prop38
140
0.0
102
RTVSPost2010PropOp38
 70
     1
102
RTVSPost2010Prop39
140
1.0
102
RTVSPost2010PropOp39
 70
     1
102
RTVSPost2010Prop40
 90
        0
102
RTVSPost2010PropOp40
 70
     1
102
RTVSPost2010Prop41ColorIndex
 90
       18
102
RTVSPost2010Prop41ColorRGB
 90
        0
102
RTVSPost2010PropOp41
 70
     1
102
RTVSPost2010Prop42
 90
       50
102
RTVSPost2010PropOp42
 70
     1
102
RTVSPost2010Prop43
 90
        3
102
RTVSPost2010PropOp43
 70
     1
102
RTVSPost2010Prop44ColorIndex
 90
        5
102
RTVSPost2010Prop44ColorRGB
 90
      255
102
RTVSPost2010PropOp44
 70
     1
102
RTVSPost2010Prop45
280
     0
102
RTVSPost2010PropOp45
 70
     1
102
RTVSPost2010Prop46
 90
       50
102
RTVSPost2010PropOp46
 70
     1
102
RTVSPost2010Prop47
 90
       50
102
RTVSPost2010PropOp47
 70
     1
102
RTVSPost2010Prop48
 90
       50
102
RTVSPost2010PropOp48
 70
     1
102
RTVSPost2010Prop49
280
     0
102
RTVSPost2010PropOp49
 70
     1
102
RTVSPost2010Prop50
 90
       50
102
RTVSPost2010PropOp50
 70
     1
102
RTVSPost2010Prop51ColorIndex
 90
      256
102
RTVSPost2010Prop51ColorRGB
 90
-16777216
102
RTVSPost2010PropOp51
 70
     0
102
RTVSPost2010Prop52
140
1.0
102
RTVSPost2010PropOp52
 70
     0
102
RTVSPost2010Prop53
 90
        2
102
RTVSPost2010PropOp53
 70
     1
102
RTVSPost2010Prop54
  1
strokes_ogs.tif
102
RTVSPost2010PropOp54
 70
     1
102
RTVSPost2010Prop55
280
     0
102
RTVSPost2010PropOp55
 70
     1
102
RTVSPost2010Prop56
140
1.0
102
RTVSPost2010PropOp56
 70
     1
102
RTVSPost2010Prop57
140
1.0
102
RTVSPost2010PropOp57
 70
     1
102
RTVSPropertyOp33
 70
     1
102
RTVSPropertyOp34
 70
     1
102
RTVSPropertyOp35
 70
     1
102
RTVSPropertyOp36
 70
     1
102
RTVSPropertyOp37
 70
     1
102
RTVSPropertyOp38
 70
     1
102
RTVSPropertyOp39
 70
     1
102
RTVSPropertyOp40
 70
     1
102
RTVSPropertyOp41
 70
     1
102
RTVSPropertyOp42
 70
     1
102
RTVSPropertyOp43
 70
     1
102
RTVSPropertyOp44
 70
     1
102
RTVSPropertyOp45
 70
     1
102
RTVSPropertyOp46
 70
     1
102
RTVSPropertyOp47
 70
     1
102
RTVSPropertyOp48
 70
     1
102
RTVSPropertyOp49
 70
     1
102
RTVSPropertyOp50
 70
     1
102
RTVSPropertyOp51
 70
     0
102
RTVSPropertyOp52
 70
     0
102
RTVSPropertyOp53
 70
     1
102
RTVSPropertyOp54
 70
     1
102
RTVSPropertyOp55
 70
     1
102
RTVSPropertyOp56
 70
     1
102
RTVSPropertyOp57
 70
     1
102
RTVSPropertyOp58
 70
     1
102
RTVSPropertyOp59
 70
     1
102
RTVSPropertyOp60
 70
     1
102
RTVSPropertyOp61
 70
     1
102
RTVSPropertyOp62
 70
     1
102
RTVSPropertyOp0
 70
     1
102
RTVSPropertyOp1
 70
     1
102
RTVSPropertyOp2
 70
     1
102
RTVSPropertyOp3
 70
     1
102
RTVSPropertyOp4
 70
     1
102
RTVSPropertyOp5
 70
     1
102
RTVSPropertyOp6
 70
     1
102
RTVSPropertyOp7
 70
     1
102
RTVSPropertyOp8
 70
     1
102
RTVSPropertyOp9
 70
     1
102
RTVSPropertyOp10
 70
     1
102
RTVSPropertyOp11
 70
     1
102
RTVSPropertyOp12
 70
     1
102
RTVSPropertyOp13
 70
     1
102
RTVSPropertyOp14
 70
     1
102
RTVSPropertyOp15
 70
     1
102
RTVSPropertyOp16
 70
     1
102
RTVSPropertyOp17
 70
     1
102
RTVSPropertyOp18
 70
     1
102
RTVSPropertyOp19
 70
     1
102
RTVSPropertyOp20
 70
     1
102
RTVSPropertyOp21
 70
     1
102
RTVSPropertyOp22
 70
     1
102
RTVSPropertyOp23
 70
     1
102
RTVSPropertyOp24
 70
     1
102
RTVSPropertyOp25
 70
     1
102
RTVSPropertyOp26
 70
     1
102
RTVSPropertyOp27
 70
     1
102
RTVSPropertyOp28
 70
     1
102
RTVSPropertyOp29
 70
     1
102
RTVSPropertyOp30
 70
     1
102
RTVSPropertyOp31
 70
     1
102
RTVSPropertyOp32
 70
     1
  0
XRECORD
  5
219D7
102
{ACAD_REACTORS
330
219D6
102
}
330
219D6
100
AcDbXrecord
280
     1
102
RTVSPost2010Prop28
280
     0
102
RTVSPost2010PropOp28
 70
     1
102
RTVSPost2010Prop29
280
     1
102
RTVSPost2010PropOp29
 70
     1
102
RTVSPost2010Prop30
280
     1
102
RTVSPost2010PropOp30
 70
     1
102
RTVSPost2010Prop31
280
     0
102
RTVSPost2010PropOp31
 70
     1
102
RTVSPost2010Prop32
280
     0
102
RTVSPost2010PropOp32
 70
     1
102
RTVSPost2010Prop33
280
     0
102
RTVSPost2010PropOp33
 70
     1
102
RTVSPost2010Prop34
280
     0
102
RTVSPost2010PropOp34
 70
     1
102
RTVSPost2010Prop35
280
     0
102
RTVSPost2010PropOp35
 70
     1
102
RTVSPost2010Prop36
280
     0
102
RTVSPost2010PropOp36
 70
     1
102
RTVSPost2010Prop37
 90
       50
102
RTVSPost2010PropOp37
 70
     1
102
RTVSPost2010Prop38
140
0.0
102
RTVSPost2010PropOp38
 70
     1
102
RTVSPost2010Prop39
140
1.0
102
RTVSPost2010PropOp39
 70
     1
102
RTVSPost2010Prop40
 90
        0
102
RTVSPost2010PropOp40
 70
     1
102
RTVSPost2010Prop41ColorIndex
 90
       18
102
RTVSPost2010Prop41ColorRGB
 90
        0
102
RTVSPost2010PropOp41
 70
     1
102
RTVSPost2010Prop42
 90
       50
102
RTVSPost2010PropOp42
 70
     1
102
RTVSPost2010Prop43
 90
        3
102
RTVSPost2010PropOp43
 70
     1
102
RTVSPost2010Prop44ColorIndex
 90
        5
102
RTVSPost2010Prop44ColorRGB
 90
      255
102
RTVSPost2010PropOp44
 70
     1
102
RTVSPost2010Prop45
280
     0
102
RTVSPost2010PropOp45
 70
     1
102
RTVSPost2010Prop46
 90
       50
102
RTVSPost2010PropOp46
 70
     1
102
RTVSPost2010Prop47
 90
       50
102
RTVSPost2010PropOp47
 70
     1
102
RTVSPost2010Prop48
 90
       50
102
RTVSPost2010PropOp48
 70
     1
102
RTVSPost2010Prop49
280
     0
102
RTVSPost2010PropOp49
 70
     1
102
RTVSPost2010Prop50
 90
       50
102
RTVSPost2010PropOp50
 70
     1
102
RTVSPost2010Prop51ColorIndex
 90
      256
102
RTVSPost2010Prop51ColorRGB
 90
-16777216
102
RTVSPost2010PropOp51
 70
     0
102
RTVSPost2010Prop52
140
1.0
102
RTVSPost2010PropOp52
 70
     0
102
RTVSPost2010Prop53
 90
        2
102
RTVSPost2010PropOp53
 70
     1
102
RTVSPost2010Prop54
  1
strokes_ogs.tif
102
RTVSPost2010PropOp54
 70
     1
102
RTVSPost2010Prop55
280
     0
102
RTVSPost2010PropOp55
 70
     1
102
RTVSPost2010Prop56
140
1.0
102
RTVSPost2010PropOp56
 70
     1
102
RTVSPost2010Prop57
140
1.0
102
RTVSPost2010PropOp57
 70
     1
102
RTVSPropertyOp33
 70
     1
102
RTVSPropertyOp34
 70
     1
102
RTVSPropertyOp35
 70
     1
102
RTVSPropertyOp36
 70
     1
102
RTVSPropertyOp37
 70
     1
102
RTVSPropertyOp38
 70
     1
102
RTVSPropertyOp39
 70
     1
102
RTVSPropertyOp40
 70
     1
102
RTVSPropertyOp41
 70
     1
102
RTVSPropertyOp42
 70
     1
102
RTVSPropertyOp43
 70
     1
102
RTVSPropertyOp44
 70
     1
102
RTVSPropertyOp45
 70
     1
102
RTVSPropertyOp46
 70
     1
102
RTVSPropertyOp47
 70
     1
102
RTVSPropertyOp48
 70
     1
102
RTVSPropertyOp49
 70
     1
102
RTVSPropertyOp50
 70
     1
102
RTVSPropertyOp51
 70
     0
102
RTVSPropertyOp52
 70
     0
102
RTVSPropertyOp53
 70
     1
102
RTVSPropertyOp54
 70
     1
102
RTVSPropertyOp55
 70
     1
102
RTVSPropertyOp56
 70
     1
102
RTVSPropertyOp57
 70
     1
102
RTVSPropertyOp58
 70
     1
102
RTVSPropertyOp59
 70
     1
102
RTVSPropertyOp60
 70
     1
102
RTVSPropertyOp61
 70
     1
102
RTVSPropertyOp62
 70
     1
102
RTVSPropertyOp0
 70
     1
102
RTVSPropertyOp1
 70
     1
102
RTVSPropertyOp2
 70
     1
102
RTVSPropertyOp3
 70
     1
102
RTVSPropertyOp4
 70
     1
102
RTVSPropertyOp5
 70
     1
102
RTVSPropertyOp6
 70
     1
102
RTVSPropertyOp7
 70
     1
102
RTVSPropertyOp8
 70
     1
102
RTVSPropertyOp9
 70
     1
102
RTVSPropertyOp10
 70
     1
102
RTVSPropertyOp11
 70
     1
102
RTVSPropertyOp12
 70
     1
102
RTVSPropertyOp13
 70
     1
102
RTVSPropertyOp14
 70
     1
102
RTVSPropertyOp15
 70
     1
102
RTVSPropertyOp16
 70
     1
102
RTVSPropertyOp17
 70
     1
102
RTVSPropertyOp18
 70
     1
102
RTVSPropertyOp19
 70
     1
102
RTVSPropertyOp20
 70
     1
102
RTVSPropertyOp21
 70
     1
102
RTVSPropertyOp22
 70
     1
102
RTVSPropertyOp23
 70
     1
102
RTVSPropertyOp24
 70
     1
102
RTVSPropertyOp25
 70
     1
102
RTVSPropertyOp26
 70
     1
102
RTVSPropertyOp27
 70
     1
102
RTVSPropertyOp28
 70
     1
102
RTVSPropertyOp29
 70
     1
102
RTVSPropertyOp30
 70
     1
102
RTVSPropertyOp31
 70
     1
102
RTVSPropertyOp32
 70
     1
  0
XRECORD
  5
219D1
102
{ACAD_REACTORS
330
219D0
102
}
330
219D0
100
AcDbXrecord
280
     1
102
RTVSPost2010Prop28
280
     0
102
RTVSPost2010PropOp28
 70
     1
102
RTVSPost2010Prop29
280
     1
102
RTVSPost2010PropOp29
 70
     1
102
RTVSPost2010Prop30
280
     1
102
RTVSPost2010PropOp30
 70
     1
102
RTVSPost2010Prop31
280
     0
102
RTVSPost2010PropOp31
 70
     1
102
RTVSPost2010Prop32
280
     0
102
RTVSPost2010PropOp32
 70
     1
102
RTVSPost2010Prop33
280
     0
102
RTVSPost2010PropOp33
 70
     1
102
RTVSPost2010Prop34
280
     0
102
RTVSPost2010PropOp34
 70
     1
102
RTVSPost2010Prop35
280
     0
102
RTVSPost2010PropOp35
 70
     1
102
RTVSPost2010Prop36
280
     0
102
RTVSPost2010PropOp36
 70
     1
102
RTVSPost2010Prop37
 90
       50
102
RTVSPost2010PropOp37
 70
     1
102
RTVSPost2010Prop38
140
0.0
102
RTVSPost2010PropOp38
 70
     1
102
RTVSPost2010Prop39
140
1.0
102
RTVSPost2010PropOp39
 70
     1
102
RTVSPost2010Prop40
 90
        0
102
RTVSPost2010PropOp40
 70
     1
102
RTVSPost2010Prop41ColorIndex
 90
       18
102
RTVSPost2010Prop41ColorRGB
 90
        0
102
RTVSPost2010PropOp41
 70
     1
102
RTVSPost2010Prop42
 90
       50
102
RTVSPost2010PropOp42
 70
     1
102
RTVSPost2010Prop43
 90
        3
102
RTVSPost2010PropOp43
 70
     1
102
RTVSPost2010Prop44ColorIndex
 90
        5
102
RTVSPost2010Prop44ColorRGB
 90
      255
102
RTVSPost2010PropOp44
 70
     1
102
RTVSPost2010Prop45
280
     0
102
RTVSPost2010PropOp45
 70
     1
102
RTVSPost2010Prop46
 90
       50
102
RTVSPost2010PropOp46
 70
     1
102
RTVSPost2010Prop47
 90
       50
102
RTVSPost2010PropOp47
 70
     1
102
RTVSPost2010Prop48
 90
       50
102
RTVSPost2010PropOp48
 70
     1
102
RTVSPost2010Prop49
280
     0
102
RTVSPost2010PropOp49
 70
     1
102
RTVSPost2010Prop50
 90
       50
102
RTVSPost2010PropOp50
 70
     1
102
RTVSPost2010Prop51ColorIndex
 90
      256
102
RTVSPost2010Prop51ColorRGB
 90
-16777216
102
RTVSPost2010PropOp51
 70
     0
102
RTVSPost2010Prop52
140
1.0
102
RTVSPost2010PropOp52
 70
     0
102
RTVSPost2010Prop53
 90
        2
102
RTVSPost2010PropOp53
 70
     1
102
RTVSPost2010Prop54
  1
strokes_ogs.tif
102
RTVSPost2010PropOp54
 70
     1
102
RTVSPost2010Prop55
280
     0
102
RTVSPost2010PropOp55
 70
     1
102
RTVSPost2010Prop56
140
1.0
102
RTVSPost2010PropOp56
 70
     1
102
RTVSPost2010Prop57
140
1.0
102
RTVSPost2010PropOp57
 70
     1
102
RTVSPropertyOp33
 70
     1
102
RTVSPropertyOp34
 70
     1
102
RTVSPropertyOp35
 70
     1
102
RTVSPropertyOp36
 70
     1
102
RTVSPropertyOp37
 70
     1
102
RTVSPropertyOp38
 70
     1
102
RTVSPropertyOp39
 70
     1
102
RTVSPropertyOp40
 70
     1
102
RTVSPropertyOp41
 70
     1
102
RTVSPropertyOp42
 70
     1
102
RTVSPropertyOp43
 70
     1
102
RTVSPropertyOp44
 70
     1
102
RTVSPropertyOp45
 70
     1
102
RTVSPropertyOp46
 70
     1
102
RTVSPropertyOp47
 70
     1
102
RTVSPropertyOp48
 70
     1
102
RTVSPropertyOp49
 70
     1
102
RTVSPropertyOp50
 70
     1
102
RTVSPropertyOp51
 70
     0
102
RTVSPropertyOp52
 70
     0
102
RTVSPropertyOp53
 70
     1
102
RTVSPropertyOp54
 70
     1
102
RTVSPropertyOp55
 70
     1
102
RTVSPropertyOp56
 70
     1
102
RTVSPropertyOp57
 70
     1
102
RTVSPropertyOp58
 70
     1
102
RTVSPropertyOp59
 70
     1
102
RTVSPropertyOp60
 70
     1
102
RTVSPropertyOp61
 70
     1
102
RTVSPropertyOp62
 70
     1
102
RTVSPropertyOp0
 70
     1
102
RTVSPropertyOp1
 70
     1
102
RTVSPropertyOp2
 70
     1
102
RTVSPropertyOp3
 70
     1
102
RTVSPropertyOp4
 70
     1
102
RTVSPropertyOp5
 70
     1
102
RTVSPropertyOp6
 70
     1
102
RTVSPropertyOp7
 70
     1
102
RTVSPropertyOp8
 70
     1
102
RTVSPropertyOp9
 70
     1
102
RTVSPropertyOp10
 70
     1
102
RTVSPropertyOp11
 70
     1
102
RTVSPropertyOp12
 70
     1
102
RTVSPropertyOp13
 70
     1
102
RTVSPropertyOp14
 70
     1
102
RTVSPropertyOp15
 70
     1
102
RTVSPropertyOp16
 70
     1
102
RTVSPropertyOp17
 70
     1
102
RTVSPropertyOp18
 70
     1
102
RTVSPropertyOp19
 70
     1
102
RTVSPropertyOp20
 70
     1
102
RTVSPropertyOp21
 70
     1
102
RTVSPropertyOp22
 70
     1
102
RTVSPropertyOp23
 70
     1
102
RTVSPropertyOp24
 70
     1
102
RTVSPropertyOp25
 70
     1
102
RTVSPropertyOp26
 70
     1
102
RTVSPropertyOp27
 70
     1
102
RTVSPropertyOp28
 70
     1
102
RTVSPropertyOp29
 70
     1
102
RTVSPropertyOp30
 70
     1
102
RTVSPropertyOp31
 70
     1
102
RTVSPropertyOp32
 70
     1
  0
XRECORD
  5
219D3
102
{ACAD_REACTORS
330
219D2
102
}
330
219D2
100
AcDbXrecord
280
     1
102
RTVSPost2010Prop28
280
     0
102
RTVSPost2010PropOp28
 70
     1
102
RTVSPost2010Prop29
280
     1
102
RTVSPost2010PropOp29
 70
     1
102
RTVSPost2010Prop30
280
     1
102
RTVSPost2010PropOp30
 70
     1
102
RTVSPost2010Prop31
280
     0
102
RTVSPost2010PropOp31
 70
     1
102
RTVSPost2010Prop32
280
     0
102
RTVSPost2010PropOp32
 70
     1
102
RTVSPost2010Prop33
280
     0
102
RTVSPost2010PropOp33
 70
     1
102
RTVSPost2010Prop34
280
     0
102
RTVSPost2010PropOp34
 70
     1
102
RTVSPost2010Prop35
280
     0
102
RTVSPost2010PropOp35
 70
     1
102
RTVSPost2010Prop36
280
     0
102
RTVSPost2010PropOp36
 70
     1
102
RTVSPost2010Prop37
 90
       50
102
RTVSPost2010PropOp37
 70
     1
102
RTVSPost2010Prop38
140
0.0
102
RTVSPost2010PropOp38
 70
     1
102
RTVSPost2010Prop39
140
1.0
102
RTVSPost2010PropOp39
 70
     1
102
RTVSPost2010Prop40
 90
        0
102
RTVSPost2010PropOp40
 70
     1
102
RTVSPost2010Prop41ColorIndex
 90
       18
102
RTVSPost2010Prop41ColorRGB
 90
        0
102
RTVSPost2010PropOp41
 70
     1
102
RTVSPost2010Prop42
 90
       50
102
RTVSPost2010PropOp42
 70
     1
102
RTVSPost2010Prop43
 90
        3
102
RTVSPost2010PropOp43
 70
     1
102
RTVSPost2010Prop44ColorIndex
 90
        5
102
RTVSPost2010Prop44ColorRGB
 90
      255
102
RTVSPost2010PropOp44
 70
     1
102
RTVSPost2010Prop45
280
     0
102
RTVSPost2010PropOp45
 70
     1
102
RTVSPost2010Prop46
 90
       50
102
RTVSPost2010PropOp46
 70
     1
102
RTVSPost2010Prop47
 90
       50
102
RTVSPost2010PropOp47
 70
     1
102
RTVSPost2010Prop48
 90
       50
102
RTVSPost2010PropOp48
 70
     1
102
RTVSPost2010Prop49
280
     0
102
RTVSPost2010PropOp49
 70
     1
102
RTVSPost2010Prop50
 90
       50
102
RTVSPost2010PropOp50
 70
     1
102
RTVSPost2010Prop51ColorIndex
 90
      256
102
RTVSPost2010Prop51ColorRGB
 90
-16777216
102
RTVSPost2010PropOp51
 70
     0
102
RTVSPost2010Prop52
140
1.0
102
RTVSPost2010PropOp52
 70
     0
102
RTVSPost2010Prop53
 90
        2
102
RTVSPost2010PropOp53
 70
     1
102
RTVSPost2010Prop54
  1
strokes_ogs.tif
102
RTVSPost2010PropOp54
 70
     1
102
RTVSPost2010Prop55
280
     0
102
RTVSPost2010PropOp55
 70
     1
102
RTVSPost2010Prop56
140
1.0
102
RTVSPost2010PropOp56
 70
     1
102
RTVSPost2010Prop57
140
1.0
102
RTVSPost2010PropOp57
 70
     1
102
RTVSPropertyOp33
 70
     1
102
RTVSPropertyOp34
 70
     1
102
RTVSPropertyOp35
 70
     1
102
RTVSPropertyOp36
 70
     1
102
RTVSPropertyOp37
 70
     1
102
RTVSPropertyOp38
 70
     1
102
RTVSPropertyOp39
 70
     1
102
RTVSPropertyOp40
 70
     1
102
RTVSPropertyOp41
 70
     1
102
RTVSPropertyOp42
 70
     1
102
RTVSPropertyOp43
 70
     1
102
RTVSPropertyOp44
 70
     1
102
RTVSPropertyOp45
 70
     1
102
RTVSPropertyOp46
 70
     1
102
RTVSPropertyOp47
 70
     1
102
RTVSPropertyOp48
 70
     1
102
RTVSPropertyOp49
 70
     1
102
RTVSPropertyOp50
 70
     1
102
RTVSPropertyOp51
 70
     0
102
RTVSPropertyOp52
 70
     0
102
RTVSPropertyOp53
 70
     1
102
RTVSPropertyOp54
 70
     1
102
RTVSPropertyOp55
 70
     1
102
RTVSPropertyOp56
 70
     1
102
RTVSPropertyOp57
 70
     1
102
RTVSPropertyOp58
 70
     1
102
RTVSPropertyOp59
 70
     1
102
RTVSPropertyOp60
 70
     1
102
RTVSPropertyOp61
 70
     1
102
RTVSPropertyOp62
 70
     1
102
RTVSPropertyOp0
 70
     1
102
RTVSPropertyOp1
 70
     1
102
RTVSPropertyOp2
 70
     1
102
RTVSPropertyOp3
 70
     1
102
RTVSPropertyOp4
 70
     1
102
RTVSPropertyOp5
 70
     1
102
RTVSPropertyOp6
 70
     1
102
RTVSPropertyOp7
 70
     1
102
RTVSPropertyOp8
 70
     1
102
RTVSPropertyOp9
 70
     1
102
RTVSPropertyOp10
 70
     1
102
RTVSPropertyOp11
 70
     1
102
RTVSPropertyOp12
 70
     1
102
RTVSPropertyOp13
 70
     1
102
RTVSPropertyOp14
 70
     1
102
RTVSPropertyOp15
 70
     1
102
RTVSPropertyOp16
 70
     1
102
RTVSPropertyOp17
 70
     1
102
RTVSPropertyOp18
 70
     1
102
RTVSPropertyOp19
 70
     1
102
RTVSPropertyOp20
 70
     1
102
RTVSPropertyOp21
 70
     1
102
RTVSPropertyOp22
 70
     1
102
RTVSPropertyOp23
 70
     1
102
RTVSPropertyOp24
 70
     1
102
RTVSPropertyOp25
 70
     1
102
RTVSPropertyOp26
 70
     1
102
RTVSPropertyOp27
 70
     1
102
RTVSPropertyOp28
 70
     1
102
RTVSPropertyOp29
 70
     1
102
RTVSPropertyOp30
 70
     1
102
RTVSPropertyOp31
 70
     1
102
RTVSPropertyOp32
 70
     1
  0
XRECORD
  5
219C9
102
{ACAD_REACTORS
330
219C8
102
}
330
219C8
100
AcDbXrecord
280
     1
102
RTVSPost2010Prop28
280
     0
102
RTVSPost2010PropOp28
 70
     1
102
RTVSPost2010Prop29
280
     1
102
RTVSPost2010PropOp29
 70
     1
102
RTVSPost2010Prop30
280
     1
102
RTVSPost2010PropOp30
 70
     1
102
RTVSPost2010Prop31
280
     0
102
RTVSPost2010PropOp31
 70
     1
102
RTVSPost2010Prop32
280
     0
102
RTVSPost2010PropOp32
 70
     1
102
RTVSPost2010Prop33
280
     0
102
RTVSPost2010PropOp33
 70
     1
102
RTVSPost2010Prop34
280
     0
102
RTVSPost2010PropOp34
 70
     1
102
RTVSPost2010Prop35
280
     0
102
RTVSPost2010PropOp35
 70
     1
102
RTVSPost2010Prop36
280
     0
102
RTVSPost2010PropOp36
 70
     1
102
RTVSPost2010Prop37
 90
       50
102
RTVSPost2010PropOp37
 70
     1
102
RTVSPost2010Prop38
140
0.0
102
RTVSPost2010PropOp38
 70
     1
102
RTVSPost2010Prop39
140
1.0
102
RTVSPost2010PropOp39
 70
     1
102
RTVSPost2010Prop40
 90
        0
102
RTVSPost2010PropOp40
 70
     1
102
RTVSPost2010Prop41ColorIndex
 90
       18
102
RTVSPost2010Prop41ColorRGB
 90
        0
102
RTVSPost2010PropOp41
 70
     1
102
RTVSPost2010Prop42
 90
       50
102
RTVSPost2010PropOp42
 70
     1
102
RTVSPost2010Prop43
 90
        3
102
RTVSPost2010PropOp43
 70
     1
102
RTVSPost2010Prop44ColorIndex
 90
        5
102
RTVSPost2010Prop44ColorRGB
 90
      255
102
RTVSPost2010PropOp44
 70
     1
102
RTVSPost2010Prop45
280
     0
102
RTVSPost2010PropOp45
 70
     1
102
RTVSPost2010Prop46
 90
       50
102
RTVSPost2010PropOp46
 70
     1
102
RTVSPost2010Prop47
 90
       50
102
RTVSPost2010PropOp47
 70
     1
102
RTVSPost2010Prop48
 90
       50
102
RTVSPost2010PropOp48
 70
     1
102
RTVSPost2010Prop49
280
     0
102
RTVSPost2010PropOp49
 70
     1
102
RTVSPost2010Prop50
 90
       50
102
RTVSPost2010PropOp50
 70
     1
102
RTVSPost2010Prop51ColorIndex
 90
      256
102
RTVSPost2010Prop51ColorRGB
 90
-16777216
102
RTVSPost2010PropOp51
 70
     0
102
RTVSPost2010Prop52
140
1.0
102
RTVSPost2010PropOp52
 70
     0
102
RTVSPost2010Prop53
 90
        2
102
RTVSPost2010PropOp53
 70
     1
102
RTVSPost2010Prop54
  1
strokes_ogs.tif
102
RTVSPost2010PropOp54
 70
     1
102
RTVSPost2010Prop55
280
     0
102
RTVSPost2010PropOp55
 70
     1
102
RTVSPost2010Prop56
140
1.0
102
RTVSPost2010PropOp56
 70
     1
102
RTVSPost2010Prop57
140
1.0
102
RTVSPost2010PropOp57
 70
     1
102
RTVSPropertyOp33
 70
     1
102
RTVSPropertyOp34
 70
     1
102
RTVSPropertyOp35
 70
     1
102
RTVSPropertyOp36
 70
     1
102
RTVSPropertyOp37
 70
     1
102
RTVSPropertyOp38
 70
     1
102
RTVSPropertyOp39
 70
     1
102
RTVSPropertyOp40
 70
     1
102
RTVSPropertyOp41
 70
     1
102
RTVSPropertyOp42
 70
     1
102
RTVSPropertyOp43
 70
     1
102
RTVSPropertyOp44
 70
     1
102
RTVSPropertyOp45
 70
     1
102
RTVSPropertyOp46
 70
     1
102
RTVSPropertyOp47
 70
     1
102
RTVSPropertyOp48
 70
     1
102
RTVSPropertyOp49
 70
     1
102
RTVSPropertyOp50
 70
     1
102
RTVSPropertyOp51
 70
     0
102
RTVSPropertyOp52
 70
     0
102
RTVSPropertyOp53
 70
     1
102
RTVSPropertyOp54
 70
     1
102
RTVSPropertyOp55
 70
     1
102
RTVSPropertyOp56
 70
     1
102
RTVSPropertyOp57
 70
     1
102
RTVSPropertyOp58
 70
     1
102
RTVSPropertyOp59
 70
     1
102
RTVSPropertyOp60
 70
     1
102
RTVSPropertyOp61
 70
     1
102
RTVSPropertyOp62
 70
     1
102
RTVSPropertyOp0
 70
     1
102
RTVSPropertyOp1
 70
     1
102
RTVSPropertyOp2
 70
     1
102
RTVSPropertyOp3
 70
     1
102
RTVSPropertyOp4
 70
     1
102
RTVSPropertyOp5
 70
     1
102
RTVSPropertyOp6
 70
     1
102
RTVSPropertyOp7
 70
     1
102
RTVSPropertyOp8
 70
     1
102
RTVSPropertyOp9
 70
     1
102
RTVSPropertyOp10
 70
     1
102
RTVSPropertyOp11
 70
     1
102
RTVSPropertyOp12
 70
     1
102
RTVSPropertyOp13
 70
     1
102
RTVSPropertyOp14
 70
     1
102
RTVSPropertyOp15
 70
     1
102
RTVSPropertyOp16
 70
     1
102
RTVSPropertyOp17
 70
     1
102
RTVSPropertyOp18
 70
     1
102
RTVSPropertyOp19
 70
     1
102
RTVSPropertyOp20
 70
     1
102
RTVSPropertyOp21
 70
     1
102
RTVSPropertyOp22
 70
     1
102
RTVSPropertyOp23
 70
     1
102
RTVSPropertyOp24
 70
     1
102
RTVSPropertyOp25
 70
     1
102
RTVSPropertyOp26
 70
     1
102
RTVSPropertyOp27
 70
     1
102
RTVSPropertyOp28
 70
     1
102
RTVSPropertyOp29
 70
     1
102
RTVSPropertyOp30
 70
     1
102
RTVSPropertyOp31
 70
     1
102
RTVSPropertyOp32
 70
     1
  0
XRECORD
  5
219BD
102
{ACAD_REACTORS
330
219BC
102
}
330
219BC
100
AcDbXrecord
280
     1
102
RTVSPost2010Prop28
280
     0
102
RTVSPost2010PropOp28
 70
     1
102
RTVSPost2010Prop29
280
     1
102
RTVSPost2010PropOp29
 70
     1
102
RTVSPost2010Prop30
280
     1
102
RTVSPost2010PropOp30
 70
     1
102
RTVSPost2010Prop31
280
     0
102
RTVSPost2010PropOp31
 70
     1
102
RTVSPost2010Prop32
280
     0
102
RTVSPost2010PropOp32
 70
     1
102
RTVSPost2010Prop33
280
     0
102
RTVSPost2010PropOp33
 70
     1
102
RTVSPost2010Prop34
280
     0
102
RTVSPost2010PropOp34
 70
     1
102
RTVSPost2010Prop35
280
     0
102
RTVSPost2010PropOp35
 70
     1
102
RTVSPost2010Prop36
280
     0
102
RTVSPost2010PropOp36
 70
     1
102
RTVSPost2010Prop37
 90
       50
102
RTVSPost2010PropOp37
 70
     1
102
RTVSPost2010Prop38
140
0.0
102
RTVSPost2010PropOp38
 70
     1
102
RTVSPost2010Prop39
140
1.0
102
RTVSPost2010PropOp39
 70
     1
102
RTVSPost2010Prop40
 90
        0
102
RTVSPost2010PropOp40
 70
     1
102
RTVSPost2010Prop41ColorIndex
 90
       18
102
RTVSPost2010Prop41ColorRGB
 90
        0
102
RTVSPost2010PropOp41
 70
     1
102
RTVSPost2010Prop42
 90
       50
102
RTVSPost2010PropOp42
 70
     1
102
RTVSPost2010Prop43
 90
        3
102
RTVSPost2010PropOp43
 70
     1
102
RTVSPost2010Prop44ColorIndex
 90
        5
102
RTVSPost2010Prop44ColorRGB
 90
      255
102
RTVSPost2010PropOp44
 70
     1
102
RTVSPost2010Prop45
280
     0
102
RTVSPost2010PropOp45
 70
     1
102
RTVSPost2010Prop46
 90
       50
102
RTVSPost2010PropOp46
 70
     1
102
RTVSPost2010Prop47
 90
       50
102
RTVSPost2010PropOp47
 70
     1
102
RTVSPost2010Prop48
 90
       50
102
RTVSPost2010PropOp48
 70
     1
102
RTVSPost2010Prop49
280
     0
102
RTVSPost2010PropOp49
 70
     1
102
RTVSPost2010Prop50
 90
       50
102
RTVSPost2010PropOp50
 70
     1
102
RTVSPost2010Prop51ColorIndex
 90
      256
102
RTVSPost2010Prop51ColorRGB
 90
-16777216
102
RTVSPost2010PropOp51
 70
     0
102
RTVSPost2010Prop52
140
1.0
102
RTVSPost2010PropOp52
 70
     0
102
RTVSPost2010Prop53
 90
        2
102
RTVSPost2010PropOp53
 70
     1
102
RTVSPost2010Prop54
  1
strokes_ogs.tif
102
RTVSPost2010PropOp54
 70
     1
102
RTVSPost2010Prop55
280
     0
102
RTVSPost2010PropOp55
 70
     1
102
RTVSPost2010Prop56
140
1.0
102
RTVSPost2010PropOp56
 70
     1
102
RTVSPost2010Prop57
140
1.0
102
RTVSPost2010PropOp57
 70
     1
102
RTVSPropertyOp33
 70
     1
102
RTVSPropertyOp34
 70
     1
102
RTVSPropertyOp35
 70
     1
102
RTVSPropertyOp36
 70
     1
102
RTVSPropertyOp37
 70
     1
102
RTVSPropertyOp38
 70
     1
102
RTVSPropertyOp39
 70
     1
102
RTVSPropertyOp40
 70
     1
102
RTVSPropertyOp41
 70
     1
102
RTVSPropertyOp42
 70
     1
102
RTVSPropertyOp43
 70
     1
102
RTVSPropertyOp44
 70
     1
102
RTVSPropertyOp45
 70
     1
102
RTVSPropertyOp46
 70
     1
102
RTVSPropertyOp47
 70
     1
102
RTVSPropertyOp48
 70
     1
102
RTVSPropertyOp49
 70
     1
102
RTVSPropertyOp50
 70
     1
102
RTVSPropertyOp51
 70
     0
102
RTVSPropertyOp52
 70
     0
102
RTVSPropertyOp53
 70
     1
102
RTVSPropertyOp54
 70
     1
102
RTVSPropertyOp55
 70
     1
102
RTVSPropertyOp56
 70
     1
102
RTVSPropertyOp57
 70
     1
102
RTVSPropertyOp58
 70
     1
102
RTVSPropertyOp59
 70
     1
102
RTVSPropertyOp60
 70
     1
102
RTVSPropertyOp61
 70
     1
102
RTVSPropertyOp62
 70
     1
102
RTVSPropertyOp0
 70
     1
102
RTVSPropertyOp1
 70
     1
102
RTVSPropertyOp2
 70
     1
102
RTVSPropertyOp3
 70
     1
102
RTVSPropertyOp4
 70
     1
102
RTVSPropertyOp5
 70
     1
102
RTVSPropertyOp6
 70
     1
102
RTVSPropertyOp7
 70
     1
102
RTVSPropertyOp8
 70
     1
102
RTVSPropertyOp9
 70
     1
102
RTVSPropertyOp10
 70
     1
102
RTVSPropertyOp11
 70
     1
102
RTVSPropertyOp12
 70
     1
102
RTVSPropertyOp13
 70
     1
102
RTVSPropertyOp14
 70
     1
102
RTVSPropertyOp15
 70
     1
102
RTVSPropertyOp16
 70
     1
102
RTVSPropertyOp17
 70
     1
102
RTVSPropertyOp18
 70
     1
102
RTVSPropertyOp19
 70
     1
102
RTVSPropertyOp20
 70
     1
102
RTVSPropertyOp21
 70
     1
102
RTVSPropertyOp22
 70
     1
102
RTVSPropertyOp23
 70
     1
102
RTVSPropertyOp24
 70
     1
102
RTVSPropertyOp25
 70
     1
102
RTVSPropertyOp26
 70
     1
102
RTVSPropertyOp27
 70
     1
102
RTVSPropertyOp28
 70
     1
102
RTVSPropertyOp29
 70
     1
102
RTVSPropertyOp30
 70
     1
102
RTVSPropertyOp31
 70
     1
102
RTVSPropertyOp32
 70
     1
  0
XRECORD
  5
219D5
102
{ACAD_REACTORS
330
219D4
102
}
330
219D4
100
AcDbXrecord
280
     1
102
RTVSPost2010Prop28
280
     0
102
RTVSPost2010PropOp28
 70
     1
102
RTVSPost2010Prop29
280
     1
102
RTVSPost2010PropOp29
 70
     1
102
RTVSPost2010Prop30
280
     1
102
RTVSPost2010PropOp30
 70
     1
102
RTVSPost2010Prop31
280
     0
102
RTVSPost2010PropOp31
 70
     1
102
RTVSPost2010Prop32
280
     0
102
RTVSPost2010PropOp32
 70
     1
102
RTVSPost2010Prop33
280
     0
102
RTVSPost2010PropOp33
 70
     1
102
RTVSPost2010Prop34
280
     0
102
RTVSPost2010PropOp34
 70
     1
102
RTVSPost2010Prop35
280
     0
102
RTVSPost2010PropOp35
 70
     1
102
RTVSPost2010Prop36
280
     0
102
RTVSPost2010PropOp36
 70
     1
102
RTVSPost2010Prop37
 90
       50
102
RTVSPost2010PropOp37
 70
     1
102
RTVSPost2010Prop38
140
0.0
102
RTVSPost2010PropOp38
 70
     1
102
RTVSPost2010Prop39
140
1.0
102
RTVSPost2010PropOp39
 70
     1
102
RTVSPost2010Prop40
 90
        0
102
RTVSPost2010PropOp40
 70
     1
102
RTVSPost2010Prop41ColorIndex
 90
       18
102
RTVSPost2010Prop41ColorRGB
 90
        0
102
RTVSPost2010PropOp41
 70
     1
102
RTVSPost2010Prop42
 90
       50
102
RTVSPost2010PropOp42
 70
     1
102
RTVSPost2010Prop43
 90
        3
102
RTVSPost2010PropOp43
 70
     1
102
RTVSPost2010Prop44ColorIndex
 90
        5
102
RTVSPost2010Prop44ColorRGB
 90
      255
102
RTVSPost2010PropOp44
 70
     1
102
RTVSPost2010Prop45
280
     0
102
RTVSPost2010PropOp45
 70
     1
102
RTVSPost2010Prop46
 90
       50
102
RTVSPost2010PropOp46
 70
     1
102
RTVSPost2010Prop47
 90
       50
102
RTVSPost2010PropOp47
 70
     1
102
RTVSPost2010Prop48
 90
       50
102
RTVSPost2010PropOp48
 70
     1
102
RTVSPost2010Prop49
280
     0
102
RTVSPost2010PropOp49
 70
     1
102
RTVSPost2010Prop50
 90
       50
102
RTVSPost2010PropOp50
 70
     1
102
RTVSPost2010Prop51ColorIndex
 90
      256
102
RTVSPost2010Prop51ColorRGB
 90
-16777216
102
RTVSPost2010PropOp51
 70
     0
102
RTVSPost2010Prop52
140
1.0
102
RTVSPost2010PropOp52
 70
     0
102
RTVSPost2010Prop53
 90
        2
102
RTVSPost2010PropOp53
 70
     1
102
RTVSPost2010Prop54
  1
strokes_ogs.tif
102
RTVSPost2010PropOp54
 70
     1
102
RTVSPost2010Prop55
280
     0
102
RTVSPost2010PropOp55
 70
     1
102
RTVSPost2010Prop56
140
1.0
102
RTVSPost2010PropOp56
 70
     1
102
RTVSPost2010Prop57
140
1.0
102
RTVSPost2010PropOp57
 70
     1
102
RTVSPropertyOp33
 70
     1
102
RTVSPropertyOp34
 70
     1
102
RTVSPropertyOp35
 70
     1
102
RTVSPropertyOp36
 70
     1
102
RTVSPropertyOp37
 70
     1
102
RTVSPropertyOp38
 70
     1
102
RTVSPropertyOp39
 70
     1
102
RTVSPropertyOp40
 70
     1
102
RTVSPropertyOp41
 70
     1
102
RTVSPropertyOp42
 70
     1
102
RTVSPropertyOp43
 70
     1
102
RTVSPropertyOp44
 70
     1
102
RTVSPropertyOp45
 70
     1
102
RTVSPropertyOp46
 70
     1
102
RTVSPropertyOp47
 70
     1
102
RTVSPropertyOp48
 70
     1
102
RTVSPropertyOp49
 70
     1
102
RTVSPropertyOp50
 70
     1
102
RTVSPropertyOp51
 70
     0
102
RTVSPropertyOp52
 70
     0
102
RTVSPropertyOp53
 70
     1
102
RTVSPropertyOp54
 70
     1
102
RTVSPropertyOp55
 70
     1
102
RTVSPropertyOp56
 70
     1
102
RTVSPropertyOp57
 70
     1
102
RTVSPropertyOp58
 70
     1
102
RTVSPropertyOp59
 70
     1
102
RTVSPropertyOp60
 70
     1
102
RTVSPropertyOp61
 70
     1
102
RTVSPropertyOp62
 70
     1
102
RTVSPropertyOp0
 70
     1
102
RTVSPropertyOp1
 70
     1
102
RTVSPropertyOp2
 70
     1
102
RTVSPropertyOp3
 70
     1
102
RTVSPropertyOp4
 70
     1
102
RTVSPropertyOp5
 70
     1
102
RTVSPropertyOp6
 70
     1
102
RTVSPropertyOp7
 70
     1
102
RTVSPropertyOp8
 70
     1
102
RTVSPropertyOp9
 70
     1
102
RTVSPropertyOp10
 70
     1
102
RTVSPropertyOp11
 70
     1
102
RTVSPropertyOp12
 70
     1
102
RTVSPropertyOp13
 70
     1
102
RTVSPropertyOp14
 70
     1
102
RTVSPropertyOp15
 70
     1
102
RTVSPropertyOp16
 70
     1
102
RTVSPropertyOp17
 70
     1
102
RTVSPropertyOp18
 70
     1
102
RTVSPropertyOp19
 70
     1
102
RTVSPropertyOp20
 70
     1
102
RTVSPropertyOp21
 70
     1
102
RTVSPropertyOp22
 70
     1
102
RTVSPropertyOp23
 70
     1
102
RTVSPropertyOp24
 70
     1
102
RTVSPropertyOp25
 70
     1
102
RTVSPropertyOp26
 70
     1
102
RTVSPropertyOp27
 70
     1
102
RTVSPropertyOp28
 70
     1
102
RTVSPropertyOp29
 70
     1
102
RTVSPropertyOp30
 70
     1
102
RTVSPropertyOp31
 70
     1
102
RTVSPropertyOp32
 70
     1
  0
ENDSEC
  0
EOF
